Tags
Language
Tags

Fripp & Eno - (No Pussyfooting) (1973) (Re-up)

Posted By: gribovar
Fripp & Eno - (No Pussyfooting) (1973) (Re-up)

Fripp & Eno - (No Pussyfooting) (1973)
EAC Rip | FLAC (image+.cue+log) - 204 MB | MP3 CBR 320 kbps (LAME 3.93) - 93 MB | Covers - 31 MB
Genre: Electronic, Ambient, Psychedelic Rock | RAR 3% Rec. | Label: Editions EG (EEGCD 2)

At the same time Brian Eno was working on Here Come the Warm Jets, he was flexing his experimental muscle with this album of tape delay manipulation recorded with Robert Fripp. In a system later to be dubbed Frippertronics, Eno and Fripp set up two reel-to-reel tape decks that would allow audio elements to be added to a continuing tape loop, building up a dense layer of sound that slowly decayed as it turned around and around the deck's playback head. Fripp later soloed on top of this. (No Pussyfooting) represents the duo's initial experiments with this system, a side each. "Heavenly Music Corporation" demonstrates the beauty of the setup, with several guitar and synth elements building on top of each other, the music slowly evolving, and Fripp ending the piece with low dive-bombing feedback that swoops over the soundscape, bringing the piece to its conclusion. "Swastika Girls," on the other hand, shows how the system can be abused. With too many disconnected sounds sharing the space, some discordant, some melodic, the resulting work lacks form and structure. Eno and Fripp later refined the system on Evening Star and Eno's solo album Discreet Music. Fripp would take the system and base whole albums and live appearances around it (particularly Let the Power Fall). But it was here on (No Pussyfooting) where it all started.

Tracklist:
01. The Heavenly Music Corporation
02. Swastika Girls

Total time: 39:43

Exact Audio Copy V1.3 from 2. September 2016

EAC extraction logfile from 21. September 2017, 17:18

Fripp & Eno / (No Pussyfooting) (EEGCD 2)

Used drive : PLEXTOR DVDR PX-891SA Adapter: 1 ID: 0

Read mode : Secure
Utilize accurate stream : Yes
Defeat audio cache : Yes
Make use of C2 pointers : No

Read offset correction : 6
Overread into Lead-In and Lead-Out : No
Fill up missing offset samples with silence : Yes
Delete leading and trailing silent blocks : No
Null samples used in CRC calculations : Yes
Used interface : Native Win32 interface for Win NT & 2000

Used output format : User Defined Encoder
Selected bitrate : 128 kBit/s
Quality : High
Add ID3 tag : No
Command line compressor : C:\Program Files (x86)\Exact Audio Copy\Flac\flac.exe
Additional command line options : -V -8 -T "Genre=%genre%" -T "Artist=%artist%" -T "Title=%title%" -T "Album=%albumtitle%" -T "Date=%year%" -T "Tracknumber=%tracknr%" -T "Comment=%comment%" %source%


TOC of the extracted CD

Track | Start | Length | Start sector | End sector
––––––––––––––––––––––––––––-
1 | 0:00.32 | 21:00.05 | 32 | 94536
2 | 21:00.37 | 18:42.70 | 94537 | 178756


Range status and errors

Selected range

Filename H:\dafnaplus\Fripp & Eno - No Pussyfooting\Fripp & Eno - (No Pussyfooting) (EEGCD 2).wav

Peak level 100.0 %
Extraction speed 7.6 X
Range quality 99.9 %
Test CRC F870A07A
Copy CRC F870A07A
Copy OK

No errors occurred


AccurateRip summary

Track 1 accurately ripped (confidence 3) [CD5151A4] (AR v2)
Track 2 accurately ripped (confidence 3) [F42E65C4] (AR v2)

All tracks accurately ripped

End of status report

–– CUETools DB Plugin V2.1.6

[CTDB TOCID: a8rW38io.qvp_zZqriwLTwQOZPk-] found
Submit result: a8rW38io.qvp_zZqriwLTwQOZPk- has been confirmed
Track | CTDB Status
1 | ( 4/14) Accurately ripped
2 | ( 4/14) Accurately ripped


==== Log checksum 56B4DA45FA46D447C2B830873A06A16DB6EA72B38CF211E4EFAC88FC3E72B139 ====

[CUETools log; Date: 11.10.2018 16:53:55; Version: 2.1.4]
Pregap length 00:00:32.
[CTDB TOCID: a8rW38io.qvp_zZqriwLTwQOZPk-] found.
Track | CTDB Status
1 | (10/23) Accurately ripped
2 | ( 9/23) Accurately ripped
[AccurateRip ID: 00042bae-000b1181-0d094f02] found.
Track [ CRC | V2 ] Status
01 [3e83ca2d|cd5151a4] (08+04/12) Accurately ripped
02 [24e16dbe|f42e65c4] (08+04/12) Accurately ripped
Offsetted by 1491:
01 [b252ee86] (00/12) No match (V2 was not tested)
02 [3b5c3c1c] (00/12) No match (V2 was not tested)

Track Peak [ CRC32 ] [W/O NULL] [ LOG ]
– 100,0 [F870A07A] [260DDAEC] CRC32
01 99,9 [101D2672] [5A70D4E7]
02 100,0 [ED864E0B] [1809EA27]

Thanks to dafnaplus

See also: