Subcategories

Frontline - Two Faced (Acoustics) (1995) Re-up

Posted By: Andi_Deris
Frontline - Two Faced (Acoustics) (1995) Re-up

Frontline - Two Faced (Acoustics) (1995)
EAC Rip | FLAC: Image+Cue+Log | 349 Mb | MP3 CBR 320 kbps | 124 Mb | Scans | 107 Mb | Time: 41:58
Signo Records | SIG 34 0004
Melodic Hard Rock, AOR, Acoustic

This the second album by the German band. This is a semi-acoustic album which features new songs plus a reworking of one of the songs from the debut album. No live audiences on this one, just a set of superbly recorded songs in the studio with lush acoustic guitars setting the aural imagery. The story is that this album is intended as a thank you to the fans and doesn't represent a change in musical direction. The singer is the real star of the album. Highlights are the infectious 'Falling', the simple but effective 'It's Not Over', 'Endless' and 'Trouble' which ends the album in style.

Frontline - Two Faced (Acoustics) (1995) Re-up




Frontline - Two Faced (Acoustics) (1995) Re-up


Track Listing

01. Falling (3:46)
02. Living Years (4:48)
03. Oceans (4:44)
04. Sky Up Above (4:24)
05. It's Not Over (4:29)
06. Restless Elec. (3:52)
07. Hole In My Heart (4:03)
08. Another Love (3:49)
09. Endless (3:41)
10. Trouble (4:22)

Produced by Robert Böbel

The Band

• Stephan Kämmerer: Vocals
• Thomas Riess: Bass
• Stephan Bayerlein: Drums
• Robby Böbel: Guitars & Keyboards

*****
• Chris Lausmann (Bonfire): Guitars

Notes

Some tracks have different titles inside the booklet:
1 - I'm Fallin'
3 - No Oceans Between Us
6 - Restless Kind
7 - Deep In My Heart


Frontline - Two Faced (Acoustics) (1995) Re-up


Exact Audio Copy V0.99 prebeta 5 from 4. May 2009

EAC extraction logfile from 25. October 2009, 17:25

Frontline / Two Faced

Used drive : PIONEER DVD-RW DVR-215D Adapter: 3 ID: 0

Read mode : Secure
Utilize accurate stream : Yes
Defeat audio cache : Yes
Make use of C2 pointers : No

Read offset correction : 48
Overread into Lead-In and Lead-Out : No
Fill up missing offset samples with silence : Yes
Delete leading and trailing silent blocks : No
Null samples used in CRC calculations : Yes
Used interface : Installed external ASPI interface

Used output format : User Defined Encoder
Selected bitrate : 768 kBit/s
Quality : High
Add ID3 tag : No
Command line compressor : E:\Program Files\Exact Audio Copy\FLAC\FLAC.EXE
Additional command line options : -8 -V %s


TOC of the extracted CD

Track | Start | Length | Start sector | End sector
––––––––––––––––––––––––––––-
1 | 0:00.30 | 3:46.68 | 30 | 17047
2 | 3:47.23 | 4:48.34 | 17048 | 38681
3 | 8:35.57 | 4:44.02 | 38682 | 59983
4 | 13:19.59 | 4:24.08 | 59984 | 79791
5 | 17:43.67 | 4:29.57 | 79792 | 100023
6 | 22:13.49 | 3:52.28 | 100024 | 117451
7 | 26:06.02 | 4:03.52 | 117452 | 135728
8 | 30:09.54 | 3:49.53 | 135729 | 152956
9 | 33:59.32 | 3:41.73 | 152957 | 169604
10 | 37:41.30 | 4:22.61 | 169605 | 189315


Range status and errors

Selected range

Filename E:\lossless\my Rips\Frontline\Frontline - Two Faced.wav

Peak level 100.0 %
Range quality 100.0 %
Test CRC B2BDBF38
Copy CRC B2BDBF38
Copy OK

No errors occurred


AccurateRip summary

Track 1 accurately ripped (confidence 1) [24446604]
Track 2 accurately ripped (confidence 1) [F1721209]
Track 3 accurately ripped (confidence 1) [50EB8260]
Track 4 accurately ripped (confidence 1) [0CE28EC2]
Track 5 accurately ripped (confidence 1) [43AB774F]
Track 6 accurately ripped (confidence 1) [D8F1ACAA]
Track 7 accurately ripped (confidence 1) [9CB0EB3C]
Track 8 accurately ripped (confidence 1) [E3401469]
Track 9 accurately ripped (confidence 1) [44003DDA]
Track 10 accurately ripped (confidence 1) [213C2B0B]

All tracks accurately ripped

End of status report


Many thanks to the original uploader: boets

SEE also:
Frontline 1994 The State Of Rock
Frontline 1994 The State Of Rock [Japan 1st Press]
Frontline 2002 Against The World [Japanese Ed.]
Frontline 2004 The Seventh Sign [Limited Ed., Digipak]