Subcategories

Fun Fun - Have Fun! & More... (I Love Disco Presents/Masters Collection) (2006)

Posted By: popsakov

Fun Fun - Have Fun! & More... (I Love Disco Presents/Masters Collection) (2006)

Fun Fun - Have Fun! & More… (I Love Disco Presents/Masters Collection) (2006)
EAC Rip | APE (Image) + Cue + Log ~ 564 Mb | MP3 CBR320 ~ 186 Mb
Scans Included (JPG, 300 dpi) | RAR 5% Recovery
Disco, Synth-Pop, Eurodance | Label: Blanco Y Negro Music | Catalog#: MXCD 1657©

Fun Fun were a popular Italian Italo disco/synthpop musical group during the 1980s. Their hits included "Colour My Love" and "Baila Bolero".
Producers Dario Raimondi and Alvaro Ugolini teamed up with studio vocalists Antonella Pepe, Angela Parisi and Ivana Spagna to create a bouncy, high-energy, dancefloor-friendly sound. Their first release, 1983's "Happy Station", found success in Italy and other parts of Europe, thanks to several extended versions.
Upon receiving invitations for live performances, Raimondi and Ugolini decided to use models for Fun Fun's public image rather than the vocalists themselves, a common tactic used in the European dance music scene by artists like Baltimora and The Real McCoy. "Have Fun!", the band's first full album from 1984, featured Francesca Merola and Roberta Servelli as the on-stage faces for the group. "Have Fun!" featured other popular dance singles, including "Give Me Your Love," "Living In Japan" and the band's oft-covered signature hit "Colour My Love", which became popular in American nightclubs because of its insistent synth bassline and easily-mixable percussion intro.

Fun Fun - Have Fun! & More... (I Love Disco Presents/Masters Collection) (2006)

After "Have Fun!", Spagna left Fun Fun and started a solo career, returning for occasional lyrical contributions. Fun Fun continued on with Merola and Elena Trastulli (who replaced Servelli) as models and a new musician/producer Larry Pignagnoli, releasing a second album, 1987's "Double Fun". "Double Fun" had several singles, including "Could This Be Love" and a cover of Spencer Davis Group's "Gimme Some Lovin'." However, the biggest hit from "Double Fun" was "Baila Bolero", a Spanish-flavored dance ballad. A megamix featuring most of the group's major hits, the "Mega Hit Mix", was released on a 12" single soon afterward.
As the Italo-Disco and High-Energy music scene decreased in popularity toward the end of the 1980s, Fun Fun tried a new direction in 1989 with the House style single "Give Me Love", which had only minimal success. Several years later, the band released its last original song, "I'm Needin' You", in a 90's Eurodance style, to equally minimal success. Since then, the only Fun Fun releases have been best-of compilations or DJ remixes/reconstructions of their previous hits.
~ wiki
Fun Fun - Have Fun! & More… (I Love Disco Presents/Masters Collection) (2006)

Fun Fun - Have Fun! & More... (I Love Disco Presents/Masters Collection) (2006)

Track List:

01. Give Me Your Love [05:29]
02. Sing Another Song [05:07]
03. Tell Me [04:57]
04. Living In Japan [05:20]
05. Color My Love [07:23]
06. Give A Little Love Again [07:08]
07. Happy Station [05:57]
08. Fun Fun Mega Hit Mix [09:07]
09. Energy Medley by Marco Trani [11:16]
10. Energy Megamix by Mario Tagliaferri [08:51]
11. Happy Station (Scratch Version) [06:51]

Exact Audio Copy V0.99 prebeta 4 from 23. January 2008

Отчёт EAC об извлечении, выполненном 24. июля 2009, 19:30

Fun Fun / Have Fun ! & More…

Дисковод: Optiarc DVD RW AD-5200A Adapter: 0 ID: 0

Режим чтения : Достоверность
Использование точного потока : Да
Отключение кэша аудио : Да
Использование указателей C2 : Нет

Коррекция смещения при чтении : 48
Способность читать области Lead-in и Lead-out : Нет
Заполнение пропущенных сэмплов тишиной : Да
Удаление блоков с тишиной в начале и конце : Нет
При вычислениях CRC использовались нулевые сэмплы : Да
Интерфейс : Установленный внешний ASPI-интерфейс

Выходной формат : Внутренние WAV-операции
Формат сэмплов : 44.100 Гц; 16 бит; стерео


TOC извлечённого CD

Трек | Старт | Длительность | Начальный сектор | Конечный сектор
––––––––––––––––––––––––––––––––––-
1 | 0:00.00 | 5:31.27 | 0 | 24851
2 | 5:31.27 | 5:06.69 | 24852 | 47870
3 | 10:38.21 | 4:56.69 | 47871 | 70139
4 | 15:35.15 | 5:20.06 | 70140 | 94145
5 | 20:55.21 | 7:23.47 | 94146 | 127417
6 | 28:18.68 | 7:07.39 | 127418 | 159481
7 | 35:26.32 | 5:57.05 | 159482 | 186261
8 | 41:23.37 | 9:07.04 | 186262 | 227290
9 | 50:30.41 | 11:15.35 | 227291 | 277950
10 | 61:46.01 | 8:51.03 | 277951 | 317778
11 | 70:37.04 | 6:49.70 | 317779 | 348523


Характеристики диапазона извлечения и сообщения об ошибках

Выбранный диапазон

Имя файла E:\… - Projects\000 I Love Disco Presents - Masters Collection\I Love Disco Presents - Masters Collection\01 Fun Fun - Have Hun & More\Fun Fun - Have Fun ! & More….wav

Пиковый уровень 100.0 %
Качество диапазона 100.0 %
CRC теста 646CEECF
CRC копии 646CEECF
Копирование… OK

Ошибок не произошло


AccurateRip: сводка

Трек 1 нет в базе данных
Трек 2 нет в базе данных
Трек 3 нет в базе данных
Трек 4 нет в базе данных
Трек 5 нет в базе данных
Трек 6 нет в базе данных
Трек 7 точное извлечение (доверие 1) [BB180B96]
Трек 8 нет в базе данных
Трек 9 нет в базе данных
Трек 10 нет в базе данных
Трек 11 точное извлечение (доверие 1) [C40D8629]

2 трек(и) скопированы точно
9 трек(и) не содержатся в базе AccurateRip

Некоторые треки не прошли проверку на точность

Конец отчёта

foobar2000 1.2.3 / Dynamic Range Meter 1.1.1
log date: 2013-02-22 19:55:58

––––––––––––––––––––––––––––––––––––––––
Analyzed: Fun Fun / Have Fun ! & More…
––––––––––––––––––––––––––––––––––––––––

DR Peak RMS Duration Track
––––––––––––––––––––––––––––––––––––––––
DR11 0.00 dB -12.98 dB 5:31 01-Give Me Your Love
DR12 -0.30 dB -13.93 dB 5:07 02-Sing Another Song
DR11 -0.30 dB -13.47 dB 4:57 03-Tell Me
DR12 -0.30 dB -13.70 dB 5:20 04-Living In Japan
DR12 -1.30 dB -13.96 dB 7:24 05-Color My Love
DR12 0.00 dB -13.55 dB 7:08 06-Give A Little Love Again
DR12 -0.30 dB -14.04 dB 5:57 07-Happy Station
DR11 0.00 dB -12.23 dB 9:07 08-Fun Fun Mega Hit Mix
DR10 -0.90 dB -12.34 dB 11:15 09-Energy Medley by Marco Trani
DR11 -0.27 dB -13.59 dB 8:51 10-Energy Megamix by Mario Tagliaferri
DR9 -0.30 dB -11.51 dB 6:50 11-Happy Station (Scratch Version)
––––––––––––––––––––––––––––––––––––––––

Number of tracks: 11
Official DR value: DR11

Samplerate: 44100 Hz
Channels: 2
Bits per sample: 16
Bitrate: 937 kbps
Codec: Monkey's Audio
================================================================================

Fun Fun - Have Fun! & More... (I Love Disco Presents/Masters Collection) (2006)

All thanks go to Pol Alex

Download: