Subcategories

Funky Junction - Play A Tribute To Deep Purple (1973) [Reissue 2012]

Posted By: antonyart
Funky Junction - Play A Tribute To Deep Purple (1973) [Reissue 2012]

Funky Junction - Play A Tribute To Deep Purple (1973) [Reissue 2012]
EAC Rip | FLAC (IMG+CUE+LOG) | 241 MB | Complete HQ Scans 600 dpi JPG included | MP3 Lame 320 CBR | 79 MB
Genre: Hard Rock | RAR 5% Rec. | Label: Flawed Gems (GEM 74) | Uploaded, Depositfiles

Funky Junction were a kind of lrish 'supergroup' formed in 1972 specifically to record a single album of Deep Purple songs. The band itself consisted of all three members of early Thin Lizzy (Lynott, Bell & Downey) and 2 musicians from less-known band Elmer Fudd. This happened because Lizzy didn't have a keyboard player and Phil Lynott was unable to sing like Ian Gillan, so he ended up playing the bass. Nine tracks (including 3 instrumentals and one original song) were recorded in one day and released in January 1973 in two versions: in UK and USA as ‘Funky Junction Play a Tribute to Deep Purple‘ (on Stereo Gold Award label) and in Germany under the name ‘The Rock Machine Play the Best of Deep Purple‘ (Sonic Records). Front cover of UK edition featured the photo of heavy rock band Hard Stuff (at the time signed to Purple Records)! This very fine and underrated album is recommended to the all fans of hard rock!
Funky Junction - Play A Tribute To Deep Purple (1973) [Reissue 2012]

Tracklist:

01. Fireball 03:27
02. Hush 04:13
03. Palamatoon 03:28
04. Dan 02:33
05. Strange Kind Of Woman 03:34
06. Black Night 03:33
07. Rising Sun 03:32
08. Speed King 05:25
09. Corina 04:29

Total: 34:14

Exact Audio Copy V1.0 beta 3 from 29. August 2011

EAC extraction logfile from 1. December 2012, 17:49

Funky Junction / Play a Tribute To Deep Purple

Used drive : HL-DT-STDVDRAM GT34N Adapter: 0 ID: 2

Read mode : Secure
Utilize accurate stream : Yes
Defeat audio cache : Yes
Make use of C2 pointers : No

Read offset correction : 103
Overread into Lead-In and Lead-Out : No
Fill up missing offset samples with silence : Yes
Delete leading and trailing silent blocks : No
Null samples used in CRC calculations : Yes
Used interface : Native Win32 interface for Win NT & 2000

Used output format : User Defined Encoder
Selected bitrate : 896 kBit/s
Quality : High
Add ID3 tag : Yes
Command line compressor : C:\Program Files (x86)\Exact Audio Copy\FLAC\FLAC.EXE
Additional command line options : -6 -V -T "ARTIST=%artist%" -T "TITLE=%title%" -T "ALBUM=%albumtitle%" -T "DATE=%year%" -T "TRACKNUMBER=%tracknr%" -T "GENRE=%genre%" -T "COMMENT=%comment%" -T "BAND=%albuminterpret%" -T "ALBUMARTIST=%albuminterpret%" -T "COMPOSER=%composer%" %haslyrics%–tag-from-file=LYRICS="%lyricsfile%"%haslyrics% -T "DISCNUMBER=%cdnumber%" -T "TOTALDISCS=%totalcds%" -T "TOTALTRACKS=%numtracks%" %hascover%–picture="%coverfile%"%hascover% %source% -o %dest%


TOC of the extracted CD

Track | Start | Length | Start sector | End sector
––––––––––––––––––––––––––––-
1 | 0:00.00 | 3:26.57 | 0 | 15506
2 | 3:26.57 | 4:12.57 | 15507 | 34463
3 | 7:39.39 | 3:27.65 | 34464 | 50053
4 | 11:07.29 | 2:32.39 | 50054 | 61492
5 | 13:39.68 | 3:34.22 | 61493 | 77564
6 | 17:14.15 | 3:33.34 | 77565 | 93573
7 | 20:47.49 | 3:31.49 | 93574 | 109447
8 | 24:19.23 | 5:25.28 | 109448 | 133850
9 | 29:44.51 | 4:29.37 | 133851 | 154062


Range status and errors

Selected range

Filename D:\FLAC\FUNKY JUNCTION -73- Play a Tribute To Deep Purple\Funky Junction - Play a Tribute To Deep Purple.wav

Peak level 100.0 %
Extraction speed 1.9 X
Range quality 100.0 %
Test CRC 2C3E8EEC
Copy CRC 2C3E8EEC
Copy OK

No errors occurred


AccurateRip summary

Track 1 not present in database
Track 2 not present in database
Track 3 not present in database
Track 4 not present in database
Track 5 not present in database
Track 6 not present in database
Track 7 not present in database
Track 8 not present in database
Track 9 not present in database

None of the tracks are present in the AccurateRip database

End of status report

==== Log checksum B787597B2CEA05191A2908D034CE5A9F70AE186359587019A005455FC34D51F5 ====

foobar2000 1.1.9 / Dynamic Range Meter 1.1.1
log date: 2013-02-05 14:31:28

––––––––––––––––––––––––––––––––––––––––
Analyzed: Funky Junction / Play a Tribute To Deep Purple
––––––––––––––––––––––––––––––––––––––––

DR Peak RMS Duration Track
––––––––––––––––––––––––––––––––––––––––
DR8 -0.10 dB -9.42 dB 3:27 01-Fireball
DR9 -0.10 dB -10.37 dB 4:13 02-Hush
DR9 0.00 dB -10.48 dB 3:28 03-Palamatoon
DR10 0.00 dB -12.63 dB 2:33 04-Dan
DR9 -0.10 dB -10.03 dB 3:34 05-Strange Kind Of Woman
DR9 0.00 dB -10.17 dB 3:33 06-Black Night
DR8 0.00 dB -10.96 dB 3:32 07-Rising Sun
DR10 0.00 dB -11.00 dB 5:25 08-Speed King
DR9 -0.10 dB -11.10 dB 4:29 09-Corina
––––––––––––––––––––––––––––––––––––––––

Number of tracks: 9
Official DR value: DR9

Samplerate: 44100 Hz
Channels: 2
Bits per sample: 16
Bitrate: 953 kbps
Codec: FLAC
================================================================================

Funky Junction were an Irish rock band formed in 1972 specifically to record a single album of songs made famous by British band Deep Purple, which was released as Funky Junction
Play a Tribute to Deep Purple in January 1973.
The project was brought about by a German businessman named Leo Muller, who contacted Irish group Thin Lizzy to record the album. The group were not enthusiastic, as they
were trying to forge their own style and identity, but they needed the money. Thin Lizzy's vocalist, Phil Lynott, decided that he was unable to sing like Deep Purple vocalist Ian Gillan,
so restricted himself to playing bass guitar and singing back-up. The band brought in Benny White, singer with the Dublin group Elmer Fudd, because they generally performed Deep
Purple covers during gigs. Thin Lizzy drummer Brian Downey referred to White as "really an Ian Gillan clone". Thin Lizzy did not have a keyboard player in their lineup, so Elmer
Fudd's keyboardist Dave "Mojo" Lennox, later in Blodwyn Pig, was also asked to participate. Thin Lizzy guitarist Eric Bell stated that White and Lennox were each paid "around £60" to
travel to De Lane Lea Studios in London to record the album.
The makeshift band rehearsed for "two or three hours", according to Downey, before recording the whole album in one day. Nine tracks were recorded, with five being Deep Purple
covers. Three others were loosely improvised instrumentals; "Dan" – a version of "Londonderry Air" or "Danny Boy" by Bell in a Jimi Hendrix style; "Rising Sun" – a cover of "The House
of the Rising Sun" made popular by The Animals; and the original composition "Palamatoon". The last track on the album was "Corina", credited to Leo Muller, as were the other non-Deep
Purple songs.
The album was released in the UK and the USA on the Stereo Gold Award label, and on the Sonic Records label in Germany. For the German release, the band's name was changed to
"The Rock Machine" with the album title being changed to "The Rock Machine Play the Best of Deep Purple". In its original edition, the album was available at Woolworths for 50p.
Thin Lizzy were paid £1000 for the recording[1] but their name was entirely omitted from the album, and a photo of a different band was featured on the cover, namely Hard Stuff,
who were signed to Deep Purple's own label.

from wiki

Funky Junction - Play A Tribute To Deep Purple (1973) [Reissue 2012]


This CD is from my personal collection. My original rip & my scan work.
>> here is my blog with all my rips <<
Please, do not mirror these links at any web pages.
FLAC + HQ 600 dpi complete scans:

Uploaded

Depositfiles

MP3 + 300 dpi front/back cover scans:

Uploaded

Depositfiles


Password: Ant