Tags
Language
Tags
February 2023
Su Mo Tu We Th Fr Sa
29 30 31 1 2 3 4
5 6 7 8 9 10 11
12 13 14 15 16 17 18
19 20 21 22 23 24 25
26 27 28 1 2 3 4

Fuzzy Duck - Fuzzy Duck (1971) {1993, Reissue}

Posted By: popsakov
Fuzzy Duck - Fuzzy Duck (1971) {1993, Reissue}

Fuzzy Duck - Fuzzy Duck (1971) {1993, Reissue}
EAC Rip | FLAC (Img) + Cue + Log ~ 364 Mb | MP3 CBR320 ~ 150 Mb
Full Scans | 00:54:29 | RAR 5% Recovery
Progressive Rock, Psychedelic Rock | Repertoire Records #REP 4352-WP

A much sought-after classic of U.K. underground progressive rock and psychedelia, this was originally issued in a scarce edition of 500 back in 1971. The album reached legendary status by affiliation, as it features Mick Harnsworth of Five Day Week Straw People and Andromeda, and Roy Sharland, a keyboardist who later worked with the Crazy World of Arthur Brown and Spice. This album is classic keyboard-driven British progressive rock in the vein of Soft Machine and Caravan. This CD edition has eight tracks, including "A Word from Big D", an entertaining performance from Roy Sharland offering his humorous 'ducking' vocals. Among four bonus items are the A and B-sides of two singles that featured top guitarist Garth Watt-Roy. Four rare bonus tracks!

***************

Fuzzy Duck - Fuzzy Duck (1971) {1993, Reissue}

Fuzzy Duck - Fuzzy Duck (1971) {1993, Reissue}

Track List:

01. Time Will Be Your Doctor [5:12]
02. Mrs. Prout [6:49]
03. Just Look Around You [4:25]
04. Afternoon Out [5:00]
05. More Than I Am [5:34]
06. Country Boy [6:05]
07. In Our Time [6:42]
08. A Word From Big D [1:42]
09. Double Time Woman [3:01]
10. Big Brass Band [2:59]
11. One More Hour [4:00]
12. No Name Face [3:04]

Exact Audio Copy V1.3 from 2. September 2016

EAC extraction logfile from 3. December 2020, 23:20

Fuzzy Duck / Fuzzy Duck

Used drive : TSSTcorpCDDVDW TS-L633B Adapter: 1 ID: 0

Read mode : Secure
Utilize accurate stream : Yes
Defeat audio cache : No
Make use of C2 pointers : Yes

Read offset correction : 6
Overread into Lead-In and Lead-Out : No
Fill up missing offset samples with silence : Yes
Delete leading and trailing silent blocks : No
Null samples used in CRC calculations : Yes
Used interface : Native Win32 interface for Win NT & 2000

Used output format : Internal WAV Routines
Sample format : 44.100 Hz; 16 Bit; Stereo


TOC of the extracted CD

Track | Start | Length | Start sector | End sector
––––––––––––––––––––––––––––-
1 | 0:00.00 | 5:11.62 | 0 | 23386
2 | 5:11.62 | 6:48.70 | 23387 | 54056
3 | 12:00.57 | 4:24.23 | 54057 | 73879
4 | 16:25.05 | 4:59.42 | 73880 | 96346
5 | 21:24.47 | 5:33.58 | 96347 | 121379
6 | 26:58.30 | 6:04.50 | 121380 | 148729
7 | 33:03.05 | 6:41.37 | 148730 | 178841
8 | 39:44.42 | 1:41.38 | 178842 | 186454
9 | 41:26.05 | 3:00.67 | 186455 | 200021
10 | 44:26.72 | 2:58.58 | 200022 | 213429
11 | 47:25.55 | 3:59.67 | 213430 | 231421
12 | 51:25.47 | 3:03.28 | 231422 | 245174


Range status and errors

Selected range

Filename F:\Alexharvey\Fuzzy Duck - Fuzzy Duck.wav

Peak level 98.8 %
Extraction speed 7.8 X
Range quality 100.0 %
Test CRC 240D40D1
Copy CRC 240D40D1
Copy OK

No errors occurred


AccurateRip summary

Track 1 accurately ripped (confidence 10) [17BD1E0B] (AR v2)
Track 2 accurately ripped (confidence 10) [A61FA45C] (AR v2)
Track 3 accurately ripped (confidence 10) [B51CAD7E] (AR v2)
Track 4 accurately ripped (confidence 10) [5B434858] (AR v2)
Track 5 accurately ripped (confidence 10) [0D7E03DB] (AR v2)
Track 6 accurately ripped (confidence 10) [02C6D61F] (AR v2)
Track 7 accurately ripped (confidence 10) [496E4AC9] (AR v2)
Track 8 accurately ripped (confidence 10) [46868AFC] (AR v2)
Track 9 accurately ripped (confidence 9) [3ED95935] (AR v2)
Track 10 accurately ripped (confidence 9) [E20A6768] (AR v2)
Track 11 accurately ripped (confidence 9) [7DE8AD24] (AR v2)
Track 12 accurately ripped (confidence 9) [EDDA1A39] (AR v2)

All tracks accurately ripped

End of status report

–– CUETools DB Plugin V2.1.6

[CTDB TOCID: JC9C00uchyHa5hV2fYq_Zf.9uAQ-] found
Submit result: JC9C00uchyHa5hV2fYq_Zf.9uAQ- has been confirmed
Track | CTDB Status
1 | (48/49) Accurately ripped
2 | (48/49) Accurately ripped
3 | (48/49) Accurately ripped
4 | (48/49) Accurately ripped
5 | (48/49) Accurately ripped
6 | (47/49) Accurately ripped
7 | (48/49) Accurately ripped
8 | (48/49) Accurately ripped
9 | (48/49) Accurately ripped
10 | (48/49) Accurately ripped
11 | (48/49) Accurately ripped
12 | (47/49) Accurately ripped


==== Log checksum 31562B8D41777E5A7BDA5E252D3597C149BA8291443649B485B52545BEDEF989 ====

[CUETools log; Date: 04.12.2020 12:32:40; Version: 2.1.6]
[CTDB TOCID: JC9C00uchyHa5hV2fYq_Zf.9uAQ-] found.
Track | CTDB Status
1 | (49/50) Accurately ripped
2 | (49/50) Accurately ripped
3 | (49/50) Accurately ripped
4 | (49/50) Accurately ripped
5 | (49/50) Accurately ripped
6 | (48/50) Accurately ripped
7 | (49/50) Accurately ripped
8 | (49/50) Accurately ripped
9 | (49/50) Accurately ripped
10 | (49/50) Accurately ripped
11 | (49/50) Accurately ripped
12 | (48/50) Accurately ripped
[AccurateRip ID: 001b0e47-00f6d647-c30cc50c] found.
Track [ CRC | V2 ] Status
01 [fcf2f766|17bd1e0b] (10+10/22) Accurately ripped
02 [522badb7|a61fa45c] (09+10/21) Accurately ripped
03 [e3e3496a|b51cad7e] (09+10/21) Accurately ripped
04 [5c82f7b7|5b434858] (09+10/21) Accurately ripped
05 [665fd9d3|0d7e03db] (09+10/21) Accurately ripped
06 [71c13db8|02c6d61f] (09+10/21) Accurately ripped
07 [bc99f397|496e4ac9] (09+10/21) Accurately ripped
08 [f28e747a|46868afc] (09+10/21) Accurately ripped
09 [36abe923|3ed95935] (09+09/20) Accurately ripped
10 [fd1335f8|e20a6768] (09+09/20) Accurately ripped
11 [5c88d640|7de8ad24] (09+09/20) Accurately ripped
12 [ac31ba07|edda1a39] (09+09/20) Accurately ripped
Offsetted by -628:
01 [257dae6e] (00/22) No match (V2 was not tested)
02 [0b353187] (00/21) No match (V2 was not tested)
03 [b0ef3002] (00/21) No match (V2 was not tested)
04 [1507914b] (00/21) No match (V2 was not tested)
05 [9d7658ff] (00/21) No match (V2 was not tested)
06 [61a6e83c] (00/21) No match (V2 was not tested)
07 [d92f21c3] (00/21) No match (V2 was not tested)
08 [a4941fba] (00/21) No match (V2 was not tested)
09 [74ef7b07] (00/20) No match (V2 was not tested)
10 [4226956c] (00/20) No match (V2 was not tested)
11 [90acc0be] (00/20) No match (V2 was not tested)
12 [6fab7c41] (00/20) No match (V2 was not tested)
Offsetted by -48:
01 [bd31bf46] (00/22) No match (V2 was not tested)
02 [a32ac677] (00/21) No match (V2 was not tested)
03 [21375b0a] (00/21) No match (V2 was not tested)
04 [00a0ab67] (00/21) No match (V2 was not tested)
05 [8e752323] (00/21) No match (V2 was not tested)
06 [da82e5a8] (00/21) No match (V2 was not tested)
07 [068800e7] (00/21) No match (V2 was not tested)
08 [dc4a677a] (00/21) No match (V2 was not tested)
09 [059f2393] (00/20) No match (V2 was not tested)
10 [ed284228] (00/20) No match (V2 was not tested)
11 [7a9bace8] (00/20) No match (V2 was not tested)
12 [806f6c7f] (00/20) No match (V2 was not tested)

Track Peak [ CRC32 ] [W/O NULL] [ LOG ]
– 98,8 [240D40D1] [61C9490B] CRC32
01 98,4 [CC8E853A] [093E640A]
02 98,4 [12367555] [E95CEEBB]
03 94,7 [DD444DD3] [98F3DE56]
04 98,4 [957918C5] [11830DAF]
05 98,4 [CB4C0FFE] [EE9D4603]
06 98,4 [DA9A0455] [FD3E8D3C]
07 98,4 [6499FE70] [792B7232]
08 98,4 [D1BD3236] [E9901FDB]
09 72,3 [75982E42] [F2A82EEA]
10 98,8 [B330531E] [1E57675C]
11 98,0 [F0A69EE8] [C5413DFA]
12 70,2 [03187C76] [D7930DCC]

Fuzzy Duck - Fuzzy Duck (1971) {1993, Reissue}


All thanks go to Alexharvey

>>> My Blog <<<

DOWNLOAD: