Subcategories

Gabor Szabo - High Contrast (1971) {2003 Verve Music Group} **[RE-UP]**

Posted By: TestTickles
Gabor Szabo - High Contrast (1971) {2003 Verve Music Group} **[RE-UP]**

Gabor Szabo - High Contrast (1971) {2003 Verve Music Group}
EAC Rip | FLAC with CUE and log | scans | 273 mb
MP3 CBR 320kbps | RAR | 101 mb
Genre: jazz, soul jazz

High Contrast is a 1971 album by guitarist Gabor Szabo released on Blue Thumb, featuring Bobby Womack. It is notable for having the original version of "Breezin'", made famous five years later by George Benson. This CD was released by the Verve Music Group in 2003.
An unusually successful pairing of Gabor Szabo with R&B legend Bobby Womack. Szabo digs deep into a soulful groove, inspired by Womack's silky-smooth originals. High Contrast features "Breezin," the Womack tune written especially for Szabo, which George Benson parlayed into a huge hit in 1976, and several tunes Womack popularized in the film Across 110th Street.

Gabor Szabo - High Contrast (1971) {2003 Verve Music Group} **[RE-UP]**

1. Breezin'
2. Amazon
3. Fingers
4. Azure Blue
5. Just A Little Communication
6. If You Don't Want My Love
7. I Remember When

EAC extraction logfile from 24. August 2006, 5:51 for CD
Gabor Szabo / High Contrast

Used drive : LITE-ON DVDRW SOHW-1633S Adapter: 0 ID: 0
Read mode : Secure with NO C2, accurate stream, disable cache
Read offset correction : 12
Overread into Lead-In and Lead-Out : No

Used output format : Internal WAV Routines
44.100 Hz; 16 Bit; Stereo

Other options :
Fill up missing offset samples with silence : Yes
Delete leading and trailing silent blocks : No
Installed external ASPI interface


Track 1
Filename D:\FLAC\Gabor Szabo - High Contrast (1971) [FLAC] {2003 Verve Music Group}\01 - Breezin'.wav

Pre-gap length 0:00:02.00

Peak level 100.0 %
Track quality 100.0 %
Test CRC DB467D98
Copy CRC DB467D98
Copy OK

Track 2
Filename D:\FLAC\Gabor Szabo - High Contrast (1971) [FLAC] {2003 Verve Music Group}\02 - Amazon.wav

Pre-gap length 0:00:02.41

Peak level 97.7 %
Track quality 100.0 %
Test CRC 43436531
Copy CRC 43436531
Copy OK

Track 3
Filename D:\FLAC\Gabor Szabo - High Contrast (1971) [FLAC] {2003 Verve Music Group}\03 - Fingers.wav

Pre-gap length 0:00:01.40

Peak level 100.0 %
Track quality 100.0 %
Test CRC D72074E8
Copy CRC D72074E8
Copy OK

Track 4
Filename D:\FLAC\Gabor Szabo - High Contrast (1971) [FLAC] {2003 Verve Music Group}\04 - Azure Blue.wav

Pre-gap length 0:00:01.42

Peak level 100.0 %
Track quality 100.0 %
Test CRC 07471DF7
Copy CRC 07471DF7
Copy OK

Track 5
Filename D:\FLAC\Gabor Szabo - High Contrast (1971) [FLAC] {2003 Verve Music Group}\05 - Just A Little Communication.wav

Pre-gap length 0:00:03.02

Peak level 100.0 %
Track quality 100.0 %
Test CRC E30FBB65
Copy CRC E30FBB65
Copy OK

Track 6
Filename D:\FLAC\Gabor Szabo - High Contrast (1971) [FLAC] {2003 Verve Music Group}\06 - If You Don't Want My Love.wav

Pre-gap length 0:00:02.21

Peak level 100.0 %
Track quality 100.0 %
Test CRC 68307D41
Copy CRC 68307D41
Copy OK

Track 7
Filename D:\FLAC\Gabor Szabo - High Contrast (1971) [FLAC] {2003 Verve Music Group}\07 - I Remember When.wav

Pre-gap length 0:00:02.16

Peak level 100.0 %
Track quality 100.0 %
Test CRC 8B130852
Copy CRC 8B130852
Copy OK

No errors occured


End of status report


Gabor Szabo - High Contrast (1971) {2003 Verve Music Group} **[RE-UP]**