Subcategories

VA - Greensleeves Rhythm Album #39: Bad Company (2003)

Posted By: TestTickles
VA - Greensleeves Rhythm Album #39: Bad Company (2003)

VA - Greensleeves Rhythm Album #39: Bad Company (2003)
EAC Rip | FLAC with CUE and log | no scans | 413 mb
MP3 CBR 320kbps | RAR | 142 mb
Genre: reggae, dancehall

This is installment #39 in Greensleeves' Rhythm Album series. The riddim, produced by Cordel "Scatta" Burrell, is called "Bad Company" and the compilation includes versions of the riddim by Sizzla, Beenie Man, Buju Banton, Elephant Man, Vybz Kaertel and many more.

I burned this onto a CD-R from my original copy but sold it years ago, thus the reason why there are no scans of the booklet, disc, or tray card.

01. Beenie Man - Row Like A Boat
02. Elephant Man - Chiney Ting
03. T.O.K. - I Spy
04. Buju Banton - People & People
05. Bounty Killer - Nah Trace
06. Vybz Kartel - What's The Deal
07. Alozade - Same Alozade
08. Degree - Wine Gal Wine
09. Assassin - Do Ma Thing
10. Wayne Marshall - Rolling Deep
11. Beenie Man - Han Up Deh
12. Sizzla - Bad Company
13. Cécile - More Than One Time
14. Merciless - Tek Wuk
15. Frisco Kid - Under Dis
16. Madd Anju - Wa Do Dem
17. Hollow Point - Easy
18. Bling Dawg & Roundhead - More Than We
19. Jagwa - Dishonour
20. General B - Clothes

Exact Audio Copy V1.0 beta 6 from 9. April 2015

EAC extraction logfile from 30. November 2017, 11:30

Various Artists / Greensleeves Rhythm Album #39: Bad Company

Used drive : TSSTcorpDVD+-RW TS-L633C Adapter: 1 ID: 0

Read mode : Secure
Utilize accurate stream : Yes
Defeat audio cache : Yes
Make use of C2 pointers : No

Read offset correction : 6
Overread into Lead-In and Lead-Out : No
Fill up missing offset samples with silence : Yes
Delete leading and trailing silent blocks : No
Null samples used in CRC calculations : Yes
Used interface : Native Win32 interface for Win NT & 2000
Gap handling : Appended to previous track

Used output format : Internal WAV Routines
Sample format : 44.100 Hz; 16 Bit; Stereo


TOC of the extracted CD

Track | Start | Length | Start sector | End sector
––––––––––––––––––––––––––––-
1 | 0:00.00 | 3:12.35 | 0 | 14434
2 | 3:12.35 | 3:35.15 | 14435 | 30574
3 | 6:47.50 | 3:20.25 | 30575 | 45599
4 | 10:08.00 | 3:02.58 | 45600 | 59307
5 | 13:10.58 | 3:20.70 | 59308 | 74377
6 | 16:31.53 | 2:55.67 | 74378 | 87569
7 | 19:27.45 | 3:15.53 | 87570 | 102247
8 | 22:43.23 | 3:30.50 | 102248 | 118047
9 | 26:13.73 | 3:03.37 | 118048 | 131809
10 | 29:17.35 | 3:21.35 | 131810 | 146919
11 | 32:38.70 | 3:21.20 | 146920 | 162014
12 | 36:00.15 | 3:02.18 | 162015 | 175682
13 | 39:02.33 | 3:12.05 | 175683 | 190087
14 | 42:14.38 | 3:03.00 | 190088 | 203812
15 | 45:17.38 | 2:56.62 | 203813 | 217074
16 | 48:14.25 | 3:12.43 | 217075 | 231517
17 | 51:26.68 | 3:03.00 | 231518 | 245242
18 | 54:29.68 | 3:12.05 | 245243 | 259647
19 | 57:41.73 | 3:03.17 | 259648 | 273389
20 | 60:45.15 | 3:11.25 | 273390 | 287739


Track 1

Filename C:\My Documents\My FLAC\VA - Greensleeves Rhythm Album #39, Bad Company (2003) [FLAC]\01 - Beenie Man - Row Like A Boat.wav

Pre-gap length 0:00:02.00

Peak level 92.4 %
Extraction speed 2.7 X
Track quality 100.0 %
Test CRC 6C615397
Copy CRC 6C615397
Track not present in AccurateRip database
Copy OK

Track 2

Filename C:\My Documents\My FLAC\VA - Greensleeves Rhythm Album #39, Bad Company (2003) [FLAC]\02 - Elephant Man - Chiney Ting.wav

Peak level 98.0 %
Extraction speed 2.9 X
Track quality 100.0 %
Test CRC 89A9839B
Copy CRC 89A9839B
Track not present in AccurateRip database
Copy OK

Track 3

Filename C:\My Documents\My FLAC\VA - Greensleeves Rhythm Album #39, Bad Company (2003) [FLAC]\03 - T.O.K. - I Spy.wav

Peak level 98.4 %
Extraction speed 3.1 X
Track quality 100.0 %
Test CRC D50F7377
Copy CRC D50F7377
Track not present in AccurateRip database
Copy OK

Track 4

Filename C:\My Documents\My FLAC\VA - Greensleeves Rhythm Album #39, Bad Company (2003) [FLAC]\04 - Buju Banton - People & People.wav

Peak level 98.2 %
Extraction speed 3.0 X
Track quality 100.0 %
Test CRC B68A5D78
Copy CRC B68A5D78
Track not present in AccurateRip database
Copy OK

Track 5

Filename C:\My Documents\My FLAC\VA - Greensleeves Rhythm Album #39, Bad Company (2003) [FLAC]\05 - Bounty Killer - Nah Trace.wav

Peak level 98.4 %
Extraction speed 3.4 X
Track quality 100.0 %
Test CRC D6366B56
Copy CRC D6366B56
Track not present in AccurateRip database
Copy OK

Track 6

Filename C:\My Documents\My FLAC\VA - Greensleeves Rhythm Album #39, Bad Company (2003) [FLAC]\06 - Vybz Kartel - What's The Deal.wav

Peak level 98.4 %
Extraction speed 3.3 X
Track quality 100.0 %
Test CRC D0387E4C
Copy CRC D0387E4C
Track not present in AccurateRip database
Copy OK

Track 7

Filename C:\My Documents\My FLAC\VA - Greensleeves Rhythm Album #39, Bad Company (2003) [FLAC]\07 - Alozade - Same Alozade.wav

Peak level 98.4 %
Extraction speed 3.5 X
Track quality 100.0 %
Test CRC 2B8D92F0
Copy CRC 2B8D92F0
Track not present in AccurateRip database
Copy OK

Track 8

Filename C:\My Documents\My FLAC\VA - Greensleeves Rhythm Album #39, Bad Company (2003) [FLAC]\08 - Degree - Wine Gal Wine.wav

Peak level 98.4 %
Extraction speed 3.8 X
Track quality 100.0 %
Test CRC 1102FD41
Copy CRC 1102FD41
Track not present in AccurateRip database
Copy OK

Track 9

Filename C:\My Documents\My FLAC\VA - Greensleeves Rhythm Album #39, Bad Company (2003) [FLAC]\09 - Assassin - Do Ma Thing.wav

Peak level 98.1 %
Extraction speed 3.8 X
Track quality 100.0 %
Test CRC 380C305B
Copy CRC 380C305B
Track not present in AccurateRip database
Copy OK

Track 10

Filename C:\My Documents\My FLAC\VA - Greensleeves Rhythm Album #39, Bad Company (2003) [FLAC]\10 - Wayne Marshall - Rolling Deep.wav

Peak level 98.0 %
Extraction speed 4.0 X
Track quality 100.0 %
Test CRC B0AEC6D3
Copy CRC B0AEC6D3
Track not present in AccurateRip database
Copy OK

Track 11

Filename C:\My Documents\My FLAC\VA - Greensleeves Rhythm Album #39, Bad Company (2003) [FLAC]\11 - Beenie Man - Han Up Deh.wav

Peak level 98.0 %
Extraction speed 4.0 X
Track quality 100.0 %
Test CRC 3CB06F32
Copy CRC 3CB06F32
Track not present in AccurateRip database
Copy OK

Track 12

Filename C:\My Documents\My FLAC\VA - Greensleeves Rhythm Album #39, Bad Company (2003) [FLAC]\12 - Sizzla - Bad Company.wav

Peak level 98.1 %
Extraction speed 3.3 X
Track quality 99.9 %
Test CRC BAE6D297
Copy CRC BAE6D297
Track not present in AccurateRip database
Copy OK

Track 13

Filename C:\My Documents\My FLAC\VA - Greensleeves Rhythm Album #39, Bad Company (2003) [FLAC]\13 - Cécile - More Than One Time.wav

Peak level 98.4 %
Extraction speed 4.3 X
Track quality 100.0 %
Test CRC 993373D9
Copy CRC 993373D9
Track not present in AccurateRip database
Copy OK

Track 14

Filename C:\My Documents\My FLAC\VA - Greensleeves Rhythm Album #39, Bad Company (2003) [FLAC]\14 - Merciless - Tek Wuk.wav

Pre-gap length 0:00:00.01

Peak level 98.2 %
Extraction speed 4.4 X
Track quality 100.0 %
Test CRC 5B0D6C76
Copy CRC 5B0D6C76
Track not present in AccurateRip database
Copy OK

Track 15

Filename C:\My Documents\My FLAC\VA - Greensleeves Rhythm Album #39, Bad Company (2003) [FLAC]\15 - Frisco Kid - Under Dis.wav

Peak level 98.2 %
Extraction speed 4.5 X
Track quality 100.0 %
Test CRC 8001C322
Copy CRC 8001C322
Track not present in AccurateRip database
Copy OK

Track 16

Filename C:\My Documents\My FLAC\VA - Greensleeves Rhythm Album #39, Bad Company (2003) [FLAC]\16 - Madd Anju - Wa Do Dem.wav

Peak level 98.3 %
Extraction speed 3.7 X
Track quality 99.9 %
Test CRC 9B996E81
Copy CRC 9B996E81
Track not present in AccurateRip database
Copy OK

Track 17

Filename C:\My Documents\My FLAC\VA - Greensleeves Rhythm Album #39, Bad Company (2003) [FLAC]\17 - Hollow Point - Easy.wav

Peak level 98.4 %
Extraction speed 4.5 X
Track quality 100.0 %
Test CRC 1463477B
Copy CRC 1463477B
Track not present in AccurateRip database
Copy OK

Track 18

Filename C:\My Documents\My FLAC\VA - Greensleeves Rhythm Album #39, Bad Company (2003) [FLAC]\18 - Bling Dawg & Roundhead - More Than We.wav

Peak level 98.4 %
Extraction speed 5.0 X
Track quality 100.0 %
Test CRC 009E220D
Copy CRC 009E220D
Track not present in AccurateRip database
Copy OK

Track 19

Filename C:\My Documents\My FLAC\VA - Greensleeves Rhythm Album #39, Bad Company (2003) [FLAC]\19 - Jagwa - Dishonour.wav

Pre-gap length 0:00:00.01

Peak level 98.4 %
Extraction speed 3.8 X
Track quality 99.9 %
Test CRC CC9B9C41
Copy CRC CC9B9C41
Track not present in AccurateRip database
Copy OK

Track 20

Filename C:\My Documents\My FLAC\VA - Greensleeves Rhythm Album #39, Bad Company (2003) [FLAC]\20 - General B - Clothes.wav

Peak level 98.4 %
Extraction speed 4.9 X
Track quality 100.0 %
Test CRC D5FF9A20
Copy CRC D5FF9A20
Track not present in AccurateRip database
Copy OK


None of the tracks are present in the AccurateRip database

No errors occurred

End of status report

–– CUETools DB Plugin V2.1.6

[CTDB TOCID: rwE_AVYCYjBsyiUHyfn71q3qtlA-] disk not present in database
Submit result: rwE_AVYCYjBsyiUHyfn71q3qtlA- has been uploaded


==== Log checksum 888001078CA387B99D48517F8D5816F38AC57568C43FC962C5FECFCC45E157DC ====