Subcategories

Gravel - No Stone Unturned (1993) {Estrus}

Posted By: TestTickles
Gravel - No Stone Unturned (1993) {Estrus}

Gravel - No Stone Unturned (1993) {Estrus}
EAC Rip | FLAC with CUE and log | scans | 277 mb
MP3 CBR 320 kbps | RAR | 96 mb
Genre: indie rock, garage rock

No Stone Unturned is the second album by American garage rock band Gravel. This was released by Estrus Records.

Gravel - No Stone Unturned (1993) {Estrus}

1. Erase
2. Hang Me
3. I'm Through
4. Sand In My Eyes
5. Pissing In A River
6. Yesterday
7. No Stone Unturned
8. Barbed Wire
9. The Wind

Exact Audio Copy V1.0 beta 1 from 15. November 2010

EAC extraction logfile from 13. October 2011, 09:17

Gravel / No Stone Unturned

Used drive : MATSHITADVD-RAM UJ-875S Adapter: 1 ID: 0

Read mode : Secure
Utilize accurate stream : Yes
Defeat audio cache : Yes
Make use of C2 pointers : No

Read offset correction : 102
Overread into Lead-In and Lead-Out : No
Fill up missing offset samples with silence : Yes
Delete leading and trailing silent blocks : No
Null samples used in CRC calculations : Yes
Used interface : Native Win32 interface for Win NT & 2000
Gap handling : Appended to previous track

Used output format : User Defined Encoder
Selected bitrate : 1024 kBit/s
Quality : High
Add ID3 tag : No
Command line compressor : I:\Software\ExactAudioCopyPortable\App\EAC\Flac\flac.exe
Additional command line options : -8 -V -T "ARTIST=%a" -T "TITLE=%t" -T "ALBUM=%g" -T "DATE=%y" -T "TRACKNUMBER=%n" -T "GENRE=%m" -T "ALBUMARTIST=%v" -T "ALBUM ARTIST=%v" -T "COMMENT=EAC Secure Mode, Test & Copy, AccurateRip, FLAC -8" %s


TOC of the extracted CD

Track | Start | Length | Start sector | End sector
––––––––––––––––––––––––––––-
1 | 0:00.00 | 3:44.37 | 0 | 16836
2 | 3:44.37 | 3:51.35 | 16837 | 34196
3 | 7:35.72 | 4:21.15 | 34197 | 53786
4 | 11:57.12 | 3:26.40 | 53787 | 69276
5 | 15:23.52 | 4:26.73 | 69277 | 89299
6 | 19:50.50 | 5:07.60 | 89300 | 112384
7 | 24:58.35 | 4:53.00 | 112385 | 134359
8 | 29:51.35 | 5:21.12 | 134360 | 158446
9 | 35:12.47 | 4:05.08 | 158447 | 176829


Track 1

Filename C:\FLAC\Gravel - No Stone Unturned (1993) [FLAC] {Estrus}\01 - Erase.wav

Pre-gap length 0:00:02.00

Peak level 100.0 %
Extraction speed 0.8 X
Track quality 100.0 %
Test CRC 40870E68
Copy CRC 40870E68
Accurately ripped (confidence 2) [F59C5065]
Copy OK

Track 2

Filename C:\FLAC\Gravel - No Stone Unturned (1993) [FLAC] {Estrus}\02 - Hang Me.wav

Pre-gap length 0:00:00.52

Peak level 100.0 %
Extraction speed 0.9 X
Track quality 100.0 %
Test CRC 36F1E081
Copy CRC 36F1E081
Accurately ripped (confidence 2) [6C439E0F]
Copy OK

Track 3

Filename C:\FLAC\Gravel - No Stone Unturned (1993) [FLAC] {Estrus}\03 - I'm Through.wav

Pre-gap length 0:00:01.70

Peak level 100.0 %
Extraction speed 1.0 X
Track quality 100.0 %
Test CRC 1A26D925
Copy CRC 1A26D925
Accurately ripped (confidence 2) [AF3F7454]
Copy OK

Track 4

Filename C:\FLAC\Gravel - No Stone Unturned (1993) [FLAC] {Estrus}\04 - Sand in My Eyes.wav

Pre-gap length 0:00:01.52

Peak level 100.0 %
Extraction speed 0.8 X
Track quality 99.9 %
Test CRC AF5BDCEE
Copy CRC AF5BDCEE
Accurately ripped (confidence 2) [75ECF88A]
Copy OK

Track 5

Filename C:\FLAC\Gravel - No Stone Unturned (1993) [FLAC] {Estrus}\05 - Pissing in a River.wav

Pre-gap length 0:00:02.55

Peak level 100.0 %
Extraction speed 0.9 X
Track quality 99.9 %
Test CRC 2FB59595
Copy CRC 2FB59595
Accurately ripped (confidence 2) [ABA18C70]
Copy OK

Track 6

Filename C:\FLAC\Gravel - No Stone Unturned (1993) [FLAC] {Estrus}\06 - Yesterday.wav

Pre-gap length 0:00:02.15

Peak level 100.0 %
Extraction speed 1.0 X
Track quality 99.9 %
Test CRC B5116B89
Copy CRC B5116B89
Accurately ripped (confidence 2) [6A4F729B]
Copy OK

Track 7

Filename C:\FLAC\Gravel - No Stone Unturned (1993) [FLAC] {Estrus}\07 - No Stone Unturned.wav

Pre-gap length 0:00:02.33

Peak level 100.0 %
Extraction speed 1.1 X
Track quality 100.0 %
Test CRC 945A708F
Copy CRC 945A708F
Accurately ripped (confidence 2) [1957C5F6]
Copy OK

Track 8

Filename C:\FLAC\Gravel - No Stone Unturned (1993) [FLAC] {Estrus}\08 - Barbed Wire.wav

Pre-gap length 0:00:01.23

Peak level 100.0 %
Extraction speed 1.2 X
Track quality 100.0 %
Test CRC 678AFAC0
Copy CRC 678AFAC0
Accurately ripped (confidence 2) [5999D0FA]
Copy OK

Track 9

Filename C:\FLAC\Gravel - No Stone Unturned (1993) [FLAC] {Estrus}\09 - The Wind.wav

Pre-gap length 0:00:01.72

Peak level 100.0 %
Extraction speed 1.1 X
Track quality 100.0 %
Test CRC 03C6CE38
Copy CRC 03C6CE38
Accurately ripped (confidence 2) [B608C7C4]
Copy OK


All tracks accurately ripped

No errors occurred

End of status report

==== Log checksum B15BEF6F4FE448607C3DEE9816FD1C93AEBEBAF52F956CA68175A33BDE5D534B ====


Gravel - No Stone Unturned (1993) {Estrus}


Thank you to the original uploader.