Subcategories

G//Z/R - Plastic Planet (1996) (bonus tracks)

Posted By: uff
G//Z/R - Plastic Planet (1996) (bonus tracks)

G//Z/R - Plastic Planet (1996) (bonus tracks)
Metal | 1cd | EAC Rip | Flac + Cue + Log | covers
Victor VICP-5764 | rel: 1996 | 550Mb

A clever alternate spelling of their namesake and bass player, this metal outfit forcefully demonstrates that the greatest metal recordings of all time owe much of their heaviness to Geezer Butler. G//Z/R even appears to target Tony Iommi – whose contribution to Black Sabbath is often described in more significant terms than that of Butler – on the vicious "Giving Up the Ghost." With more than enough power to eclipse any sans-Butler Black Sabbath or Iommi project, this 1995 release proves its creative point. Engineer Paul Northfield deserves special credit for fusing the punishing sounds of guitarist Pedro Howse and drummer Deen Castronovo with Butler's famous low end. Fear Factory vocalist Burton C. Bell's holler wears a little thin at times, but he never crowds G//Z/R's super-heavy riffs. ~Allmusic

Track listing
01. Catatonic Eclipse (6:12)
02. Drive Boy, Shooting (4:17)
03. Giving Up The Ghost (5:13)
04. Plastic Planet (4:19)
05. The Invisible (3:44)
06. Seance Fiction (5:56)
07. House Of Clouds (3:45)
08. Detective 27 (3:09)
09. X13 (4:05)
10. Sci-Clone (3:41)
11. Cycle Of Sixty (3:01)
bonus
12. Drive Boy, Shooting (LIVE) (4:14)
13. Detective 27 (LIVE) (3:10)
14. House Of Clouds (LIVE) (3:35)

Personnel
- Geezer Butler - bass guitar and keyboards
- Pedro Howse - guitar
- Burton C. Bell - vocals
- Deen Castronovo - drums


Exact Audio Copy V0.99 prebeta 5 from 4. May 2009

Archivo Log de extracciones desde 9. Octubre 2012, 12:03

GEEZER (G//Z/R) / Plastic Planet - Japan (VICP-5764)

Usar unidad : HL-DT-STDVDRAM GH22NS70 Adapter: 0 ID: 0

Modo de Lectura : Seguro
Utilizar Corriente Exacta : Sí
Descartar Audio caché : Sí
Utilizar los punteros C2 : No

Corrección de Desplazamiento de Lectura : 667
Sobreleer tanto en Lead-In como en Lead-Out : No
Rellenar las muestras faltantes con silencios : Sí
Eliminar silencios inicial y final : No
Se han usado muestras nulas en los cálculos CRC : Sí
Interfaz usada : Interfaz propio de Win32 para Windowns NT y 2000

Formato de Salida utilizado : Compresor definido por el usuario
Bitrate seleccionado : 32 kBit/s
Calidad : Alta
Ańadir Etiqueta ID3 : No
Compresor de linea de comandos : C:\Program Files (x86)\Exact Audio Copy\Flac\flac.exe
Opciones adicionales en línea de comandos : -6 -V %s


TOC del CD extraido

Pista | Inicio | Duración | Sector inicial | Sector final
––––––––––––––––––––––––––––––-
1 | 0:00.37 | 6:12.15 | 37 | 27951
2 | 6:12.52 | 4:17.20 | 27952 | 47246
3 | 10:29.72 | 5:13.50 | 47247 | 70771
4 | 15:43.47 | 4:19.10 | 70772 | 90206
5 | 20:02.57 | 3:44.05 | 90207 | 107011
6 | 23:46.62 | 5:56.35 | 107012 | 133746
7 | 29:43.22 | 3:45.13 | 133747 | 150634
8 | 33:28.35 | 3:09.22 | 150635 | 164831
9 | 36:37.57 | 4:05.58 | 164832 | 183264
10 | 40:43.40 | 3:41.60 | 183265 | 199899
11 | 44:25.25 | 3:02.20 | 199900 | 213569
12 | 47:27.45 | 4:14.32 | 213570 | 232651
13 | 51:42.02 | 3:10.10 | 232652 | 246911
14 | 54:52.12 | 3:35.25 | 246912 | 263061


Gama de estados y errores

Seleccionar gama

Nombre de Archivo E:\Música\EAC\Black Sabbath\Geezer - Plastic Planet\GEEZER (G Z R) - Plastic Planet - Japan (VICP-5764).wav

Nivel Pico 100.0 %
Gama de Calidad 100.0 %
Test CRC 2AB3DE7A
Copiar CRC 2AB3DE7A
Copia OK

Sin Errores


Resumen AccurateRip

Pista 1 extraido de modo preciso (nivel de confianza 2) [C4A70ED0]
Pista 2 extraido de modo preciso (nivel de confianza 2) [3E6E3F38]
Pista 3 extraido de modo preciso (nivel de confianza 2) [9FF8DFCC]
Pista 4 extraido de modo preciso (nivel de confianza 2) [02C5C4FE]
Pista 5 extraido de modo preciso (nivel de confianza 2) [E56E088A]
Pista 6 extraido de modo preciso (nivel de confianza 1) [5E3E6D3A]
Pista 7 extraido de modo preciso (nivel de confianza 1) [7277BCA5]
Pista 8 extraido de modo preciso (nivel de confianza 1) [EB3C87B9]
Pista 9 extraido de modo preciso (nivel de confianza 2) [738D1F82]
Pista 10 extraido de modo preciso (nivel de confianza 1) [1919592E]
Pista 11 extraido de modo preciso (nivel de confianza 1) [3034AE50]
Pista 12 extraido de modo preciso (nivel de confianza 1) [ED80272B]
Pista 13 extraido de modo preciso (nivel de confianza 1) [7CCD4B72]
Pista 14 extraido de modo preciso (nivel de confianza 1) [BCE53180]

Todas las pistas extraidas de modo preciso

Final del Informe



[CUETools log; Date: 2016.05.02. 10:00:23; Version: 2.1.5]
Pregap length 00:00:37.
[CTDB TOCID: slFfBbGpvVrwBvFldSOZxhpi.UU-] found.
Track | CTDB Status
1 | (2/2) Accurately ripped
2 | (2/2) Accurately ripped
3 | (2/2) Accurately ripped
4 | (2/2) Accurately ripped
5 | (2/2) Accurately ripped
6 | (2/2) Accurately ripped
7 | (2/2) Accurately ripped
8 | (2/2) Accurately ripped
9 | (2/2) Accurately ripped
10 | (2/2) Accurately ripped
11 | (2/2) Accurately ripped
12 | (2/2) Accurately ripped
13 | (2/2) Accurately ripped
14 | (2/2) Accurately ripped
[AccurateRip ID: 0020875a-01530dce-c40db30e] found.
Track [ CRC | V2 ] Status
01 [c4a70ed0|2f79ac52] (2+0/2) Accurately ripped
02 [3e6e3f38|db13b4f3] (2+0/2) Accurately ripped
03 [9ff8dfcc|bf656eda] (2+0/2) Accurately ripped
04 [02c5c4fe|4f65fa39] (2+0/2) Accurately ripped
05 [e56e088a|7cff01ae] (2+0/2) Accurately ripped
06 [5e3e6d3a|df5da6dd] (1+0/1) Accurately ripped
07 [7277bca5|d4bd632a] (1+0/1) Accurately ripped
08 [eb3c87b9|cb6dbd96] (1+0/1) Accurately ripped
09 [738d1f82|6a7d3a9d] (2+0/2) Accurately ripped
10 [1919592e|7347a2aa] (1+0/1) Accurately ripped
11 [3034ae50|3072295b] (1+0/1) Accurately ripped
12 [ed80272b|95833573] (1+0/1) Accurately ripped
13 [7ccd4b72|c82b5d55] (1+0/1) Accurately ripped
14 [bce53180|d2a080d9] (1+0/1) Accurately ripped

Track Peak [ CRC32 ] [W/O NULL]
– 100,0 [2AB3DE7A] [18A4353A]
01 100,0 [C4E76D86] [94275142]
02 100,0 [18C5F1B2] [19FCB712]
03 100,0 [35CC6871] [00A8B41D]
04 100,0 [C15FF14F] [C07D19A4]
05 100,0 [247641EA] [9DEBA2D7]
06 100,0 [5D65CDB2] [275EF3E1]
07 100,0 [59270028] [65FF1D99]
08 100,0 [9BCB0B5F] [C980BF59]
09 100,0 [5FF9F84B] [4CB7050D]
10 100,0 [1E451ED3] [89375BD6]
11 100,0 [D8BBF118] [EBE3DDE5]
12 94,4 [EDAB8788] [5238E66D]
13 94,4 [6DE5F99D] [99CD37E8]
14 94,4 [393BB1CE] [DB861BA7]


Thx to jarpomarx
Bigfile
Yunfile

password: asd