Subcategories

Gabor Szabo - Macho (1975) [2013, Japanese Blu-Spec CD]

Posted By: BlondStyle
Gabor Szabo - Macho (1975) [2013, Japanese Blu-Spec CD]

Gabor Szabo - Macho (1975) [2013, Japanese Blu-Spec CD]
Jazz, Jazz-Funk, Crossover Jazz | EAC Rip | FLAC, Img+CUE+LOG+Full Scans-300dpi (PNG) | 38:11 Min | 254,30 Mb
Label: King Records (Japan) | Released: 2013, December, 11
Gabor Szabo - Macho (1975) [2013, Japanese Blu-Spec CD]

Macho is an album by Hungarian guitarist Gábor Szabó featuring performances recorded in 1975 and released on the Salvation label. The Allmusic review states "This is a tough, streetwise, commercial jazz album that has plenty to offer to anyone with an open mind. In the pocket, groove-soaked, and flawlessly executed". Macho is right. This 1975 album is one of the headiest in the Hungarian-born guitarist Gabor Szabo's entire catalog. Produced by Bob James, the album is deep in fretless Fender basslines courtesy of Louis Johnson, funky Rhodes pianos and synthesizers from James and former Mother of Invention Ian Underwood, guitar savvy from Szabo with Eric Gale on rhythm, and a horn section that features no less than George Bohanon, Jon Faddis, and Tom Scott, with the venerable Harvey Mason Sr. on drums. This is a tough, in-your-face, funky soul-jazz band. Szabo's sense of camp was eternal as he covers, disco-style, Franz Liszt's "Hungarian Rhapsody #2," but slips into the souled-out groove-jazz of his own "Time," without a seam. Szabo's playing, with its mysterious, liquid runs and razor sharp melodic sensibilities, is centered here by James, who attempts to make Szabo's six strings be at the absolute dead-center of the mix. Tracks like James' own "Transylvania Boogie," (the long title track), and Phoebe Snow's "Poetry Man," offer a glimpse of Szabo as the consummate melodist: with teeth. Harmonically, this band was as disciplined as the charts would allow, giving nothing away in the ensemble sections. This is a tough, streetwise, commercial jazz album that has plenty to offer to anyone with an open mind. In the pocket, groove-soaked, and flawlessly executed.
Gabor Szabo - Macho (1975) [2013, Japanese Blu-Spec CD]

Gabor Szabo - Macho (1975) [2013, Japanese Blu-Spec CD]


Release of the album: 1975 [LP Salvation, Cat.# SAL 704 S1, USA]
Release of this CD: 2013, December, 11 [CD King Records (Japan), Cat.# KICJ 2350 / UPC: 4988003444174]
℗ 1975 King Record Co., Ltd., Japan. Made in Japan

Bass – Louis Johnson
Drums – Harvey Mason
Guitar – Eric Gale, Gabor Szabo
Keyboards – Bob James
Lyricon, Saxophone [Tenor] – Tom Scott
Percussion – Idris Muhammad, Ralph MacDonald
Producer – Bob James
Trombone – George Bohanon
Trumpet – John Faddis


Tracklist:

01. Hungarian Rhapsody #2 (06:57)
(Arranged By – Bob James; Written-By – F. Liszt)
02. Time (05:42)
(Arranged By, Written-By – Gabor Szabo)
03. Transylvania Boogie (05:36)
(Arranged By, Written-By – Bob James)
04. Ziggidy Zag (06:04)
(Arranged By, Written-By – Harvey Mason)
05. Macho (09:18)
(Arranged By, Written-By – Gabor Szabo)
06. Poetry Man (04:34)
(Arranged By – Bob James; Written-By – Phoebe Snow)

Recorded April 3, 4, 5, 7 & 8, 1975 at Kendun Recorders, Burbank, California

Exact Audio Copy V1.0 beta 3 from 29. August 2011

Отчёт EAC об извлечении, выполненном 31. января 2016, 23:02

Gabor Szabo / Macho

Дисковод: Optiarc DVD RW AD-7203S Adapter: 0 ID: 1

Режим чтения : Достоверность
Использование точного потока : Да
Отключение кэша аудио : Да
Использование указателей C2 : Нет

Коррекция смещения при чтении : 48
Способность читать области Lead-in и Lead-out : Нет
Заполнение пропущенных сэмплов тишиной : Да
Удаление блоков с тишиной в начале и конце : Нет
При вычислениях CRC использовались нулевые сэмплы : Да
Интерфейс : Встроенный Win32-интерфейс для Win NT/2000

Выходной формат : Пользовательский кодировщик
Выбранный битрейт : 128 kBit/s
Качество : Высокий
Добавление ID3-тега : Нет
Утилита сжатия : C:\Program Files (x86)\Exact Audio Copy\Flac\flac.exe
Дополнительные параметры : -V -8 -T "Date=%year%" -T "Genre=%genre%" %source%


TOC извлечённого CD

Трек | Старт | Длительность | Начальный сектор | Конечный сектор
––––––––––––––––––––––––––––––––––-
1 | 0:00.00 | 6:57.28 | 0 | 31302
2 | 6:57.28 | 5:42.36 | 31303 | 56988
3 | 12:39.64 | 5:35.65 | 56989 | 82178
4 | 18:15.54 | 6:04.10 | 82179 | 109488
5 | 24:19.64 | 9:17.73 | 109489 | 151336
6 | 33:37.62 | 4:33.50 | 151337 | 171861


Характеристики диапазона извлечения и сообщения об ошибках

Выбранный диапазон

Имя файла D:\Music\_Egor from PTZ\Gabor Szabo - Macho (1975)\Gabor Szabo - Macho (1975).wav

Пиковый уровень 100.0 %
Скорость извлечения 3.6 X
Качество диапазона 100.0 %
CRC теста BCA3E707
CRC копии BCA3E707
Копирование… OK

Ошибок не произошло


AccurateRip: сводка

Трек 1 : извлечено точно (доверие 5) [0DF715AB] (AR v2)
Трек 2 : извлечено точно (доверие 5) [A3DB0F62] (AR v2)
Трек 3 : извлечено точно (доверие 5) [FBF244F1] (AR v2)
Трек 4 : извлечено точно (доверие 5) [1DD05404] (AR v2)
Трек 5 : извлечено точно (доверие 5) [E6C69F5A] (AR v2)
Трек 6 : извлечено точно (доверие 5) [64C70F6D] (AR v2)

Все треки извлечены точно

Конец отчёта

==== Контрольная сумма отчёта 0A6897781BC49F2F3EE979B1EBF0DAC0014A01514EBFF83A0D6FA04028145CDF ====

foobar2000 1.3.7 / Dynamic Range Meter 1.1.1
log date: 2016-02-07 22:18:39

––––––––––––––––––––––––––––––––––––––––
Analyzed: Gabor Szabo / Macho
––––––––––––––––––––––––––––––––––––––––

DR Peak RMS Duration Track
––––––––––––––––––––––––––––––––––––––––
DR13 0.00 dB -15.45 dB 6:57 01-Hungarian Rhapsody #2
DR14 0.00 dB -18.26 dB 5:42 02-Time
DR13 0.00 dB -15.66 dB 5:36 03-Transylvania Boogie
DR13 -0.09 dB -15.04 dB 6:04 04-Ziggidy Zag
DR14 0.00 dB -17.75 dB 9:18 05-Macho
DR14 0.00 dB -17.22 dB 4:34 06-Poetry Man
––––––––––––––––––––––––––––––––––––––––

Number of tracks: 6
Official DR value: DR13

Samplerate: 44100 Hz
Channels: 2
Bits per sample: 16
Bitrate: 781 kbps
Codec: FLAC
================================================================================

All thanks to Egor from PTZ
Nitroflare
password: BlondStyle