Subcategories

Gabor Szabo - Mizrab (1973) [Japanese Edition 2006] (Repost)

Posted By: gribovar
Gabor Szabo - Mizrab (1973) [Japanese Edition 2006] (Repost)

Gabor Szabo - Mizrab (1973) [Japanese Edition 2006]
EAC Rip | FLAC (tracks+.cue+log) - 203 MB | MP3 CBR 320 kbps (LAME 3.93) - 90 MB | Covers (4 MB) included
Genre: Jazz, Fusion | RAR 3% Rec. | Label: King Records (KICJ 2188)

Gabor Szabo, who always had an original sound on the guitar (displaying his Hungarian heritage), is backed by a string section, horns and a rhythm section (including bassist Ron Carter and either Billy Cobham or Jack DeJohnette on drums) on this Bob James production. For this program Szabo performs two originals, a pair of pop tunes and an adaptation of a Shostakovich classical concerto.
Tracklist:
01. Mizrab
02. Thirteen
03. It's Going To Take Some Time
04. Concerto
05. Summer Breeze

Total time: 36:34

Exact Audio Copy V1.0 beta 1 from 15. November 2010

EAC extraction logfile from 1. March 2011, 21:59

Gabor Szabo / Mizrab

Used drive : Optiarc DVD RW AD-7240S Adapter: 2 ID: 1

Read mode : Secure
Utilize accurate stream : Yes
Defeat audio cache : Yes
Make use of C2 pointers : No

Read offset correction : 48
Overread into Lead-In and Lead-Out : No
Fill up missing offset samples with silence : Yes
Delete leading and trailing silent blocks : No
Null samples used in CRC calculations : Yes
Used interface : Native Win32 interface for Win NT & 2000
Gap handling : Appended to previous track

Used output format : User Defined Encoder
Selected bitrate : 896 kBit/s
Quality : High
Add ID3 tag : No
Command line compressor : C:\Program Files (x86)\Exact Audio Copy New\FLAC\FLAC.EXE
Additional command line options : -8 -V -T "ARTIST=%a" -T "TITLE=%t" -T "ALBUM=%g" -T "DATE=%y" -T "TRACKNUMBER=%n" -T "GENRE=%m" -T "COMMENT=EAC FLAC -8" %s


TOC of the extracted CD

Track | Start | Length | Start sector | End sector
––––––––––––––––––––––––––––-
1 | 0:00.00 | 9:35.32 | 0 | 43156
2 | 9:35.32 | 9:16.23 | 43157 | 84879
3 | 18:51.55 | 4:14.40 | 84880 | 103969
4 | 23:06.20 | 7:20.32 | 103970 | 137001
5 | 30:26.52 | 6:07.18 | 137002 | 164544


Track 1

Filename C:\Lossless\Gabor Szabo - 1972 - Mizrab [flac]\01 - Mizrab.wav

Pre-gap length 0:00:02.00

Peak level 100.0 %
Extraction speed 2.7 X
Track quality 100.0 %
Test CRC 7C8C1616
Copy CRC 7C8C1616
Accurately ripped (confidence 1) [6B2716D6]
Copy OK

Track 2

Filename C:\Lossless\Gabor Szabo - 1972 - Mizrab [flac]\02 - Thirteen.wav

Pre-gap length 0:00:02.10

Peak level 100.0 %
Extraction speed 3.3 X
Track quality 100.0 %
Test CRC EC2063DF
Copy CRC EC2063DF
Accurately ripped (confidence 1) [3BA748A4]
Copy OK

Track 3

Filename C:\Lossless\Gabor Szabo - 1972 - Mizrab [flac]\03 - It's Going To Take Some Time.wav

Pre-gap length 0:00:03.05

Peak level 100.0 %
Extraction speed 3.4 X
Track quality 100.0 %
Test CRC 3DC420B8
Copy CRC 3DC420B8
Accurately ripped (confidence 1) [0F74F0CE]
Copy OK

Track 4

Filename C:\Lossless\Gabor Szabo - 1972 - Mizrab [flac]\04 - Concerto.wav

Pre-gap length 0:00:03.00

Peak level 79.6 %
Extraction speed 3.9 X
Track quality 100.0 %
Test CRC 433F28E1
Copy CRC 433F28E1
Accurately ripped (confidence 1) [F21EE1C7]
Copy OK

Track 5

Filename C:\Lossless\Gabor Szabo - 1972 - Mizrab [flac]\05 - Summer Breeze.wav

Pre-gap length 0:00:02.05

Peak level 100.0 %
Extraction speed 4.1 X
Track quality 100.0 %
Test CRC 11E73A1B
Copy CRC 11E73A1B
Accurately ripped (confidence 1) [509257E2]
Copy OK


All tracks accurately ripped

No errors occurred

End of status report

==== Log checksum 8C2D2107AD60D0AF9461588A3A4D0967C0455BFAC585370F04FE5F7725D2612C ====

[CUETools log; Date: 05.12.2018 19:50:53; Version: 2.1.4]
[CTDB TOCID: 6rxmXGnRLyDI0EmTNT4xfvXAA4o-] found.
Track | CTDB Status
1 | (12/12) Accurately ripped
2 | (12/12) Accurately ripped
3 | (12/12) Accurately ripped
4 | (12/12) Accurately ripped
5 | (12/12) Accurately ripped
[AccurateRip ID: 00082432-002510bb-44089105] found.
Track [ CRC | V2 ] Status
01 [6b2716d6|19aefd03] (0+3/3) Accurately ripped
02 [3ba748a4|7222d49a] (0+3/3) Accurately ripped
03 [0f74f0ce|3fe07d91] (0+3/3) Accurately ripped
04 [f21ee1c7|0db5e39d] (0+3/3) Accurately ripped
05 [509257e2|212ca667] (0+3/3) Accurately ripped

Track Peak [ CRC32 ] [W/O NULL] [ LOG ]
– 100,0 [F5E9C766] [5A7970A5]
01 99,9 [7C8C1616] [EC3A029C] CRC32
02 100,0 [EC2063DF] [56874CDC] CRC32
03 100,0 [3DC420B8] [EC78132E] CRC32
04 79,6 [433F28E1] [C45FA2C5] CRC32
05 100,0 [11E73A1B] [3F1CD2FF] CRC32

Thanks to intellect

See also:
Gabor Szabo - The Sorcerer (1967) [Reissue 1997]