Ensemble MidtVest - Gade: Chamber Works, Vol. 2 (2016)

Posted By: SERTiL
Ensemble MidtVest - Gade: Chamber Works, Vol. 2 (2016)

Ensemble MidtVest - Gade: Chamber Works, Vol. 2
Classical | WEB FLAC (tracks) & front cover | 55:01 min | 255 MB
Label: CPO | Tracks: 08 | Rls.date: 2016

Composer Niels Gade ( 1817-1890) is considered to be the most influential Danish musician of his time. He was also a successful teacher, conductor, violinist, and organist. This release is the second volume in the exploration of Gade’s chamber music, and includes his String Quartet in E minor with extra movements, the first movement of a Piano Trio in B-flat major, and Scherzo in C sharp minor for Piano Quintet. “Even in the intricate texture the individual voices remain transparent; the focus on what is essential is more important than everything experimental. The MidtVest ensemble relies on flowing lines, not on leaden ritardandi, on well-rounded formulations instead of roughly delineated blocks.” (FonoForum of Vol. 1).

TRACKLIST
01. String Quartet in E Minor, Op. 8: I. Allegro (Non troppo)
02. String Quartet in E Minor, Op. 8: II. Andantino
03. String Quartet in E Minor, Op. 8: III. Scherzo. Presto
04. String Quartet in E Minor, Op. 8: IV. Finale. Allegro
05. String Quartet in E Minor, Op. 8: Allegro non troppo (Original First Movement)
06. String Quartet in E Minor, Op. 8: Andantino con moto (Discarded Movement)
07. Piano Trio in B-Flat Major: I. -
08. Scherzo in C-Sharp Minor

PERFORMER: auCDtect Task Manager, ver. 1.6.0 RC1 build 1.6.0.1
Copyright © 2008-2010 y-soft. All rights reserved

ANALYZER: auCDtect: CD records authenticity detector, version 0.8.2
Copyright © 2004 Oleg Berngardt. All rights reserved.
Copyright © 2004 Alexander Djourik. All rights reserved.


FILE: 08. Scherzo in C-Sharp Minor.flac
Size: 40015184 Hash: 748913396C3977879FB8E9BDECA9D3A7 Accuracy: -m0
Conclusion: CDDA 100%
Signature: A17427B3A1E497E1A4CAD7BDDD4E01CC390B70E4
FILE: 07. Piano Trio in B-Flat Major I. -.flac
Size: 61913923 Hash: 8B516E164FCF9E4C8BA0CFE85BD34813 Accuracy: -m0
Conclusion: CDDA 100%
Signature: E16D9AF50159B958E7EE27F9634C01928282987E
FILE: 06. String Quartet in E Minor, Op. 8 Andantino con moto (Discarded Movement).flac
Size: 23224241 Hash: A27C851ADB9A585F6EE11836431ADE3F Accuracy: -m0
Conclusion: CDDA 100%
Signature: 08EBC16155854D036253F0D2C321F77AEE8EEC39
FILE: 05. String Quartet in E Minor, Op. 8 Allegro non troppo (Original First Movement).flac
Size: 34401251 Hash: 392201427506BE1855BC8BC204189F92 Accuracy: -m0
Conclusion: CDDA 100%
Signature: B5C95789A53A5948D14E4CAE9DED5D061CA2EFCC
FILE: 04. String Quartet in E Minor, Op. 8 IV. Finale. Allegro.flac
Size: 34031564 Hash: C821E23368911DE9C64743FFD3FF077C Accuracy: -m0
Conclusion: CDDA 100%
Signature: B17DA39AE704A14D6CD64E3A72563B8C7AF57D97
FILE: 03. String Quartet in E Minor, Op. 8 III. Scherzo. Presto.flac
Size: 21750793 Hash: 4400EB65F49740BEB93B5948EABB2D53 Accuracy: -m0
Conclusion: CDDA 100%
Signature: AE89DF8F67B1487A270C71FFAB8AECB781B1EC0E
FILE: 02. String Quartet in E Minor, Op. 8 II. Andantino.flac
Size: 17775066 Hash: CB8CBB384F11FE4F42A01FD45AB62588 Accuracy: -m0
Conclusion: CDDA 100%
Signature: E1A37C62D360FC393B4C564DF41F1925CA3BBF2F
FILE: 01. String Quartet in E Minor, Op. 8 I. Allegro (Non troppo).flac
Size: 34471094 Hash: BC6CFD97E9601B4E2F6F48D59AF55B95 Accuracy: -m0
Conclusion: CDDA 100%
Signature: 7EDAA23F101BBE64EAFC8A042D55980C9D749471

foobar2000 1.3.7 / Dynamic Range Meter 1.1.1
log date: 2017-10-10 21:33:56

––––––––––––––––––––––––––––––––––––––––
Analyzed: Ensemble MidtVest / Gade: Chamber Works, Vol. 2
––––––––––––––––––––––––––––––––––––––––

DR Peak RMS Duration Track
––––––––––––––––––––––––––––––––––––––––
DR13 -0.15 dB -18.68 dB 6:24 01-String Quartet in E Minor, Op. 8: I. Allegro (Non troppo)
DR13 -2.02 dB -19.40 dB 3:22 02-String Quartet in E Minor, Op. 8: II. Andantino
DR12 -2.34 dB -18.42 dB 4:07 03-String Quartet in E Minor, Op. 8: III. Scherzo. Presto
DR13 -2.43 dB -19.39 dB 6:32 04-String Quartet in E Minor, Op. 8: IV. Finale. Allegro
DR13 -1.85 dB -19.12 dB 6:36 05-String Quartet in E Minor, Op. 8: Allegro non troppo (Original First Movement)
DR12 -2.22 dB -20.59 dB 4:39 06-String Quartet in E Minor, Op. 8: Andantino con moto (Discarded Movement)
DR14 -1.76 dB -20.09 dB 13:55 07-Piano Trio in B-Flat Major: I. -
DR15 -0.70 dB -19.56 dB 9:31 08-Scherzo in C-Sharp Minor
––––––––––––––––––––––––––––––––––––––––

Number of tracks: 8
Official DR value: DR13

Samplerate: 44100 Hz
Channels: 2
Bits per sample: 16
Bitrate: 557 kbps
Codec: FLAC
================================================================================


Ensemble MidtVest - Gade: Chamber Works, Vol. 2 (2016)


Thanks to the Original customer.