Tags
Language
Tags

Galliard - New Dawn (1970) {2009, Remastered}

Posted By: popsakov
Galliard - New Dawn (1970) {2009, Remastered}

Galliard - New Dawn (1970) {2009, Remastered}
EAC Rip | FLAC (Img) + Cue + Log ~ 297 Mb | MP3 CBR320 ~ 125 Mb
Full Scans | 00:42:55 | RAR 5% Recovery
Progressive Rock / Psychedelic Rock / Folk Rock / Jazz Rock / Fusion
Esoteric Recordings #ECLEC2099

Galliard were in on the ground floor of the British progressive rock movement, releasing their debut album, Strange Pleasure, in 1969 and mixing jazz, rock, folk, and psychedelic influences. The following year, New Dawn pretty much picked up where its predecessor left off, with one key exception. The band had initially featured two wind players, Dave Caswell and John Smith; though Smith was absent from New Dawn, a whole brace of additional horn players had been brought in to augment the sound. This was during the period when the likes of Chicago and Blood, Sweat & Tears (and their British equivalents) were starting out, and brass-rock was all the rage. That's not to suggest that Galliard were trying to ride the brass-rock gravy train – their work is too skilled and varied for that – but simply that they were right in time for the Zeitgeist. Some cuts, like "New Dawn Breaking" and "Open Up Your Mind," make full use of the horn section, coming off like a cross between early Chicago and jazzy U.K. prog rockers Colosseum, but that's far from the dominant sound on this eclectic outing. Lead guitarist Richard Pannell's sitar work on "Ask for Nothing" contributes to a swirling Eastern atmosphere that seems soaked in a kind of psychedelic afterglow from the late ‘60s. "Winter – Spring – Summer" is an ambitious suite full of shifting dynamics and settings, while the gentle, acoustic-based "And Smile Again" echoes Jethro Tull or the more folk-oriented moments of Traffic. "Premonition" is a straight-up jazz-rock instrumental pushed along by Tommy Thomas' congas, where Pannell and the horns get to stretch out a bit. Closing track "In Your Mind's Eyes" (sic) opens with a couple of minutes of atmospheric, otherworldly tones before bringing things home with a blast of bold-faced, brass-filled prog rock. The striking thing is just how good Galliard were at all of the varied styles they attempt on New Dawn, but sadly, it was to be their last album.

~ James Allen, All Music

***************

Galliard - New Dawn (1970) {2009, Remastered}

Galliard - New Dawn (1970) {2009, Remastered}

Track List:

01. New Dawn Breaking [0:04:22.18]
02. Ask For Nothing [0:09:01.17]
03. Winter-Spring-Summer [0:05:57.22]
04. Open Up Your Mind [0:03:14.68]
05. And Smile Again [0:04:09.68]
06. Something Going On [0:04:55.41]
07. Premonition [0:04:45.08]
08. In Your Mind's Eyes [0:06:28.72]

Personnel:
Les Podraza - drums
Andy Abbott - fender bass,accordion,lead vocals
Geoff Brown - rhythm,hammond
Richard Pannell - lead guitar,sitar
Dave Caswell - trumpet,indian flute,electric piano,vocals
Lyle Jenkins - tenor,baritone saxophone
John Hughes - trombone
Harry Becket - trumpet,flugelhorn
Tony Roberts - flute
John Morton - piano
Tommy Thomas - congas

Exact Audio Copy V0.99 prebeta 4 from 23. January 2008

Отчёт EAC об извлечении, выполненном 1. декабря 2012, 12:15

Galliard / New Dawn

Дисковод: ASUS DRW-1814BL Adapter: 1 ID: 0

Режим чтения : Достоверность
Использование точного потока : Да
Отключение кэша аудио : Да
Использование указателей C2 : Нет

Коррекция смещения при чтении : 6
Способность читать области Lead-in и Lead-out : Нет
Заполнение пропущенных сэмплов тишиной : Да
Удаление блоков с тишиной в начале и конце : Нет
При вычислениях CRC использовались нулевые сэмплы : Да
Интерфейс : Установленный внешний ASPI-интерфейс

Выходной формат : Пользовательский кодировщик
Выбранный битрейт : 1024 kBit/s
Качество : Высокий
Добавление ID3-тэга : Нет
Утилита сжатия : C:\Program Files\Exact Audio Copy\FLAC\FLAC.EXE
Дополнительные параметры : -6 -V -T "ARTIST=%a" -T "TITLE=%t" -T "ALBUM=%g" -T "DATE=%y" -T "TRACKNUMBER=%n" -T "GENRE=%m" -T "COMMENT=%e" %s -o %d


TOC извлечённого CD

Трек | Старт | Длительность | Начальный сектор | Конечный сектор
––––––––––––––––––––––––––––––––––-
1 | 0:00.00 | 4:22.18 | 0 | 19667
2 | 4:22.18 | 9:01.17 | 19668 | 60259
3 | 13:23.35 | 5:57.22 | 60260 | 87056
4 | 19:20.57 | 3:14.68 | 87057 | 101674
5 | 22:35.50 | 4:09.68 | 101675 | 120417
6 | 26:45.43 | 4:55.41 | 120418 | 142583
7 | 31:41.09 | 4:45.08 | 142584 | 163966
8 | 36:26.17 | 6:28.72 | 163967 | 193138


Характеристики диапазона извлечения и сообщения об ошибках

Выбранный диапазон

Имя файла D:\loSSleSS\galliard'1970\Galliard - New Dawn.wav

Пиковый уровень 98.8 %
Качество диапазона 100.0 %
CRC теста D3AFABE2
CRC копии D3AFABE2
Копирование… OK

Ошибок не произошло


AccurateRip: сводка

Трек 1 нет в базе данных
Трек 2 нет в базе данных
Трек 3 нет в базе данных
Трек 4 нет в базе данных
Трек 5 нет в базе данных
Трек 6 нет в базе данных
Трек 7 нет в базе данных
Трек 8 нет в базе данных

Ни одного трека нет в базе AccurateRip

Конец отчёта

[CUETools log; Date: 10.07.2019 1:19:14; Version: 2.1.6]
[CTDB TOCID: sCYL88eOvKmVejMGZmC90VbrejE-] found.
Track | CTDB Status
1 | (10/10) Accurately ripped
2 | (10/10) Accurately ripped
3 | (10/10) Accurately ripped
4 | (10/10) Accurately ripped
5 | ( 2/10) Accurately ripped, or (8/10) differs in 82 samples @00:00:16-00:00:18,00:00:31,04:08:00
6 | (10/10) Accurately ripped
7 | ( 2/10) Accurately ripped, or (8/10) differs in 162 samples @04:43:24-04:43:28,04:43:34-04:43:35
8 | ( 2/10) Accurately ripped, or (8/10) differs in 283 samples @00:00:26-00:00:33
[AccurateRip ID: 000d8fc0-00593907-630a0f08] found.
Track [ CRC | V2 ] Status
01 [70db7020|18646c68] (2+0/8) Accurately ripped
02 [ab862547|a26e2288] (2+0/8) Accurately ripped
03 [34b11385|8e6b65e1] (2+0/8) Accurately ripped
04 [809889ef|cea5a0ed] (2+0/8) Accurately ripped
05 [2fabe0f4|59e53cda] (2+0/8) Accurately ripped
06 [9dad417d|e8106559] (2+0/8) Accurately ripped
07 [744ea4e0|1ba96ef6] (2+0/8) Accurately ripped
08 [38f1b067|47d895cd] (2+0/8) Accurately ripped
Offsetted by 180:
01 [0c17367e] (0/8) No match (V2 was not tested)
02 [f200e021] (0/8) No match (V2 was not tested)
03 [ed89999d] (0/8) No match (V2 was not tested)
04 [c08fe831] (0/8) No match (V2 was not tested)
05 [0a950f72] (0/8) No match (V2 was not tested)
06 [19da8319] (0/8) No match (V2 was not tested)
07 [6290f2d2] (0/8) No match (V2 was not tested)
08 [7bd186c5] (0/8) No match (V2 was not tested)

Track Peak [ CRC32 ] [W/O NULL] [ LOG ]
– 98,8 [D3AFABE2] [91CD3193] CRC32
01 98,8 [028CC52B] [0C1177DF]
02 98,8 [54E0CA36] [22CAB456]
03 98,8 [E14B03B6] [4074FF14]
04 98,8 [A305F5C6] [AE653B0B]
05 80,0 [68A71C8E] [6B0DD8B3]
06 98,8 [245FD240] [EB721412]
07 95,7 [BFD15E87] [9B6EAF4A]
08 98,8 [8E4B254F] [DD12CC8D]

Galliard - New Dawn (1970) {2009, Remastered}


See also:

Galliard - Strange Pleasure (1969) {2009, Remastered}

All thanks go to the original ripper(s) …

>>> My Blog <<<

DOWNLOAD: