Subcategories

Gamma - Darts (1974) {2017, Remastered}

Posted By: popsakov
Gamma - Darts (1974) {2017, Remastered}

Gamma - Darts (1974) {2017, Remastered}
EAC Rip | FLAC (Img) + Cue + Log ~ 198 Mb | MP3 CBR320 ~ 87 Mb
Full Scans (JPG, 600 dpi) ~ 95 Mb | RAR 5% Recovery
Jazz Rock, Fusion, Progressive Rock | Paisley Press #PP 128

Reissue of the second album of the jazz-rock band Gamma, released on the German label Paisley Press. The band was formed in the 70's and released only two albums.

***************

Gamma - Darts (1974) {2017, Remastered}

Gamma - Darts (1974) {2017, Remastered}

Track List:

01. Wishing Like Children (Part One) [3:16]
02. Wishing Like Children (Part Two) [2:10]
03. Exposal [5:04]
04. Endless [2:22]
05. Goodbye Holiday [6:04]
06. Darts [6:40]
07. Anna’s Mood [2:26]
08. Heart Rhythm [4:40]
09. Your Face [3:16]

Personnel:
Paul Poulissen — Fender Rhodes el. piano, Hammond organ, mellotron, ARP synthesizer, brass, spinet
Wouter Hasebos — guitars
Rob Goubitz — bass
Hans van der Schaft — drums, percussion
Bob Martens — percussion
Lex Bolderdijck — guitar solo (2, 5, 6)

Exact Audio Copy V1.3 from 2. September 2016

Отчёт EAC об извлечении, выполненном 21. августа 2017, 11:12

GAMMA / Darts

Дисковод: TSSTcorpCDDVDW SH-224DB Adapter: 1 ID: 0

Режим чтения : Достоверность
Использование точного потока : Да
Отключение кэша аудио : Да
Использование указателей C2 : Нет

Коррекция смещения при чтении : 6
Способность читать области Lead-in и Lead-out : Нет
Заполнение пропущенных сэмплов тишиной : Да
Удаление блоков с тишиной в начале и конце : Нет
При вычислениях CRC использовались нулевые сэмплы : Да
Интерфейс : Встроенный Win32-интерфейс для Win NT/2000

Выходной формат : Внутренние WAV-операции
Формат сэмплов : 44.100 Гц; 16 бит; стерео


TOC извлечённого CD

Трек | Старт | Длительность | Начальный сектор | Конечный сектор
––––––––––––––––––––––––––––––––––-
1 | 0:00.00 | 3:16.00 | 0 | 14699
2 | 3:16.00 | 2:10.00 | 14700 | 24449
3 | 5:26.00 | 5:04.00 | 24450 | 47249
4 | 10:30.00 | 2:22.00 | 47250 | 57899
5 | 12:52.00 | 6:04.00 | 57900 | 85199
6 | 18:56.00 | 6:40.00 | 85200 | 115199
7 | 25:36.00 | 2:26.00 | 115200 | 126149
8 | 28:02.00 | 4:40.00 | 126150 | 147149
9 | 32:42.00 | 3:16.00 | 147150 | 161849


Характеристики диапазона извлечения и сообщения об ошибках

Выбранный диапазон

Имя файла D:\TEMP\GAMMA - 1974 - Darts [2017 Paisley Press reissue, PP 128].wav

Пиковый уровень 99.9 %
Скорость извлечения 2.5 X
Качество диапазона 99.9 %
CRC теста F79DC52A
CRC копии F79DC52A
Копирование… OK

Ошибок не произошло


AccurateRip: сводка

Трек 1 отсутствует в базе данных
Трек 2 отсутствует в базе данных
Трек 3 отсутствует в базе данных
Трек 4 отсутствует в базе данных
Трек 5 отсутствует в базе данных
Трек 6 отсутствует в базе данных
Трек 7 отсутствует в базе данных
Трек 8 отсутствует в базе данных
Трек 9 отсутствует в базе данных

Ни одного трека нет в базе AccurateRip

Конец отчёта

–– CUETools DB Plugin V2.1.6

[CTDB TOCID: nECLK3.QaBWa2NUlJhFKRWdJkmQ-] disk not present in database
Submit result: nECLK3.QaBWa2NUlJhFKRWdJkmQ- has been uploaded


==== Контрольная сумма отчёта B36572AD0086548786772ED40867FC9688B75DEC8E2538ACE3B5B502539C8ED2 ====

foobar2000 1.2.6 / Dynamic Range Meter 1.1.1
log date: 2017-08-22 00:31:56

––––––––––––––––––––––––––––––––––––––––
Analyzed: GAMMA / Darts
––––––––––––––––––––––––––––––––––––––––

DR Peak RMS Duration Track
––––––––––––––––––––––––––––––––––––––––
DR11 -0.02 dB -12.33 dB 3:16 01-Wishing Like Children (Part One)
DR12 -0.04 dB -14.22 dB 2:10 02-Wishing Like Children (Part Two)
DR11 -0.02 dB -12.70 dB 5:04 03-Exposal
DR12 -0.03 dB -15.71 dB 2:22 04-Endless
DR10 -0.01 dB -12.45 dB 6:04 05-Goodbye Holiday
DR11 0.00 dB -12.89 dB 6:40 06-Darts
DR12 -2.07 dB -16.99 dB 2:26 07-Anna’s Mood
DR12 -0.91 dB -16.02 dB 4:40 08-Heart Rhythm
DR12 -0.93 dB -18.44 dB 3:16 09-Your Face
––––––––––––––––––––––––––––––––––––––––

Number of tracks: 9
Official DR value: DR11

Samplerate: 44100 Hz
Channels: 2
Bits per sample: 16
Bitrate: 732 kbps
Codec: FLAC
================================================================================

[CUETools log; Date: 22.08.2017 0:31:59; Version: 2.1.5]
[CTDB TOCID: nECLK3.QaBWa2NUlJhFKRWdJkmQ-] found.
Track | CTDB Status
1 | (1/1) Accurately ripped
2 | (1/1) Accurately ripped
3 | (1/1) Accurately ripped
4 | (1/1) Accurately ripped
5 | (1/1) Accurately ripped
6 | (1/1) Accurately ripped
7 | (1/1) Accurately ripped
8 | (1/1) Accurately ripped
9 | (1/1) Accurately ripped
[AccurateRip ID: 000be64a-00594715-83086e09] disk not present in database.

Track Peak [ CRC32 ] [W/O NULL] [ LOG ]
– 99,9 [F79DC52A] [10D74330] CRC32
01 99,8 [5F66D9A4] [A6962419]
02 99,5 [25249277] [A1B79845]
03 99,8 [C31F2232] [473A9BB9]
04 99,6 [62EE07F8] [92E5225E]
05 99,8 [F7EEBC19] [A9C734C6]
06 99,9 [6D4B4192] [C03ED49D]
07 78,8 [DC8FFABA] [6000F15C]
08 90,0 [98D7A9C8] [F11CF86C]
09 89,8 [33596274] [5D42496D]

Gamma - Darts (1974) {2017, Remastered}

All thanks go to spAceLover

>>> My Blog <<<

Download from icerbox.com: