Subcategories

Gary Hoey - Animal Instinct (1993)

Posted By: popsakov
Gary Hoey - Animal Instinct (1993)

Gary Hoey - Animal Instinct (1993)
EAC Rip | FLAC (Img) + Cue + Log ~ 285 Mb | MP3 CBR320 ~ 98 Mb
Scans (JPG, 600 dpi) ~ 66 Mb | RAR 5% Recovery
Classic Rock, Hard Rock, Blues Rock, Instrumental Rock | Reprise Records #9 45350-2

Animal Instinct is the title of the 1993 début release by instrumental rock guitarist Gary Hoey. The album featured his version of the hit "Hocus Pocus", originally done by 1970s Dutch progressive rock band Focus. His band at the time consisted of a few notable names of 1980s hard rock, including ex-Firm bassist Tony Franklin, keyboardist Claude Schnell (ex-Dio), and drummer Frankie Banali (ex-Quiet Riot).
~ Wiki


Gary Hoey - Animal Instinct (1993)

On his 1993 Warner Bros. debut, instrumental rocker Gary Hoey plucks and hammers his way through 40 minutes' worth of post-Satriani rock noodling. Despite several attempts at genre-bending blues and soul references, Animal Instinct is all melodic (bordering on adult/soft) rock. The aggressive opener, "Mass Hysteria," and the upbeat shuffle "Texas Son" count as highlights, but the real standout is probably "Drive," a cut that boasts what is clearly the record's finest melody. Hoey plays admirably, and his supporting cast – Tony Franklin (bass) and Frankie Banali (drums) – also provide solid performances. Animal Instinct is a respectable offering for sure, but Hoey doesn't demonstrate a rhythmic or melodic capacity anywhere near that of his obvious influences, Joe Satriani and Steve Vai. Fans of virtuoso guitar rock would do better to search out superior shred material from the likes of Michael Lee Firkins, Tony MacAlpine, and Blues Saraceno before picking up this or any Gary Hoey disc.
~ Vincent Jeffries, All Music

Gary Hoey - Animal Instinct (1993)


***************

Gary Hoey - Animal Instinct (1993)

Track List:

01. Mass Hysteria [03:42]
02. Animal Instinct [03:57]
03. Hocus Pocus [04:06]
04. Bert's Lounge [04:57]
05. Texas Son [03:58]
06. Deep South Cafe [04:43]
07. Motown Fever [03:03]
08. Fade to Blue [05:53]
09. Drive [04:07]
10. Jamie [02:21]

Exact Audio Copy V1.0 beta 3 from 29. August 2011

Отчёт EAC об извлечении, выполненном 15. июля 2016, 16:32

Gary Hoey / Animal Instinct

Дисковод: ATAPI iHAS424 A Adapter: 0 ID: 0

Режим чтения : Достоверность
Использование точного потока : Да
Отключение кэша аудио : Да
Использование указателей C2 : Нет

Коррекция смещения при чтении : 6
Способность читать области Lead-in и Lead-out : Нет
Заполнение пропущенных сэмплов тишиной : Да
Удаление блоков с тишиной в начале и конце : Нет
При вычислениях CRC использовались нулевые сэмплы : Да
Интерфейс : Установленный внешний ASPI-интерфейс

Выходной формат : Пользовательский кодировщик
Выбранный битрейт : 1024 kBit/s
Качество : Высокий
Добавление ID3-тега : Нет
Утилита сжатия : C:\Program Files\Exact Audio Copy\FLAC\FLAC.EXE
Дополнительные параметры : -8 -V -T "ARTIST=%artist%" -T "ALBUM=%albumtitle%" -T "DATE=%year%" -T "GENRE=%genre%" -T "COMMENT=ripped by izia1956" %source%


TOC извлечённого CD

Трек | Старт | Длительность | Начальный сектор | Конечный сектор
––––––––––––––––––––––––––––––––––-
1 | 0:00.32 | 3:41.48 | 32 | 16654
2 | 3:42.05 | 3:56.22 | 16655 | 34376
3 | 7:38.27 | 4:05.63 | 34377 | 52814
4 | 11:44.15 | 4:56.65 | 52815 | 75079
5 | 16:41.05 | 3:57.17 | 75080 | 92871
6 | 20:38.22 | 4:42.25 | 92872 | 114046
7 | 25:20.47 | 3:02.13 | 114047 | 127709
8 | 28:22.60 | 5:52.22 | 127710 | 154131
9 | 34:15.07 | 4:06.38 | 154132 | 172619
10 | 38:21.45 | 2:20.70 | 172620 | 183189


Характеристики диапазона извлечения и сообщения об ошибках

Выбранный диапазон

Имя файла D:\BitComet\Gary Hoey (flac)\1993 - Animal Instinct\Gary Hoey - Animal Instinct.wav

Пиковый уровень 100.0 %
Скорость извлечения 5.7 X
Качество диапазона 99.9 %
CRC теста 3B417485
CRC копии 3B417485
Копирование… OK

Ошибок не произошло


AccurateRip: сводка

Трек 1 : извлечено точно (доверие 21) [95E9E3E5] (AR v2)
Трек 2 : извлечено точно (доверие 21) [8377FF4F] (AR v2)
Трек 3 : извлечено точно (доверие 21) [9DFA53D7] (AR v2)
Трек 4 : извлечено точно (доверие 21) [62273FC1] (AR v2)
Трек 5 : извлечено точно (доверие 21) [80E7E635] (AR v2)
Трек 6 : извлечено точно (доверие 21) [7437E69F] (AR v2)
Трек 7 : извлечено точно (доверие 21) [DDCD1C79] (AR v2)
Трек 8 : извлечено точно (доверие 21) [8C91AE71] (AR v2)
Трек 9 : извлечено точно (доверие 20) [91081CCE] (AR v2)
Трек 10 : извлечено точно (доверие 20) [715D742D] (AR v2)

Все треки извлечены точно

Конец отчёта

==== Контрольная сумма отчёта DB92FA930C1AC9A08C46BD75BE49D1B0CDACC16DDCB0C6BE7BDDA3C458F9B502 ====

foobar2000 1.2.6 / Dynamic Range Meter 1.1.1
log date: 2016-08-03 01:35:57

––––––––––––––––––––––––––––––––––––––––
Analyzed: Gary Hoey / Animal Instinct
––––––––––––––––––––––––––––––––––––––––

DR Peak RMS Duration Track
––––––––––––––––––––––––––––––––––––––––
DR9 -0.07 dB -10.68 dB 3:42 01-Mass Hysteria
DR10 -0.21 dB -11.32 dB 3:56 02-Animal Instinct
DR10 -0.25 dB -11.43 dB 4:06 03-Hocus Pocus
DR12 0.00 dB -13.79 dB 4:57 04-Bert's Lounge
DR10 -0.31 dB -11.88 dB 3:57 05-Texas Son
DR11 -0.20 dB -12.84 dB 4:42 06-Deep South Cafe
DR10 -0.18 dB -12.24 dB 3:02 07-Motown Fever
DR11 0.00 dB -14.53 dB 5:52 08-Fade to Blue
DR10 0.00 dB -11.29 dB 4:07 09-Drive
DR14 -0.08 dB -17.42 dB 2:21 10-Jamie
––––––––––––––––––––––––––––––––––––––––

Number of tracks: 10
Official DR value: DR11

Samplerate: 44100 Hz
Channels: 2
Bits per sample: 16
Bitrate: 930 kbps
Codec: FLAC
================================================================================

[CUETools log; Date: 03.08.2016 1:35:53; Version: 2.1.5]
Pregap length 00:00:32.
[CTDB TOCID: x0dcKuIK2pAXXfGRsDkhnBqjybA-] found.
Track | CTDB Status
1 | ( 9/10) Accurately ripped
2 | ( 9/10) Accurately ripped
3 | ( 9/10) Accurately ripped
4 | ( 9/10) Accurately ripped
5 | ( 9/10) Accurately ripped
6 | ( 9/10) Accurately ripped
7 | ( 9/10) Accurately ripped
8 | ( 9/10) Accurately ripped
9 | ( 9/10) Accurately ripped
10 | ( 9/10) Accurately ripped
[AccurateRip ID: 000f9e2a-007d8ff4-58098a0a] found.
Track [ CRC | V2 ] Status
01 [51b72c72|95e9e3e5] (24+21/45) Accurately ripped
02 [7e4600a6|8377ff4f] (23+21/44) Accurately ripped
03 [349c5413|9dfa53d7] (23+21/44) Accurately ripped
04 [e57c12b7|62273fc1] (23+21/44) Accurately ripped
05 [6e36abfc|80e7e635] (23+21/44) Accurately ripped
06 [8f3a96d2|7437e69f] (23+21/44) Accurately ripped
07 [528ad73b|ddcd1c79] (23+21/44) Accurately ripped
08 [6b786bef|8c91ae71] (23+21/44) Accurately ripped
09 [e713a349|91081cce] (24+20/44) Accurately ripped
10 [d2c3661f|715d742d] (22+20/42) Accurately ripped

Track Peak [ CRC32 ] [W/O NULL] [ LOG ]
– 100,0 [3B417485] [33D5BE61] CRC32
01 99,1 [5C991321] [7C82388E]
02 97,5 [5C63E1EC] [6850EB3B]
03 97,1 [8F06C48B] [A53CDD07]
04 100,0 [F713E8A2] [07ABE1B5]
05 96,5 [7BF83C39] [64E3F8EA]
06 97,7 [B669A635] [367AB8AC]
07 97,8 [D8A2D17E] [87434E88]
08 100,0 [B01FAF17] [9B884AB4]
09 100,0 [6CC3789B] [2350013C]
10 99,0 [CAD94904] [7B46D841]

Gary Hoey - Animal Instinct (1993)

Gary Hoey - Animal Instinct (1993)

See also:
Gary Hoey - Dust & Bones (2016)

All thanks go to izia1956

Visit my blog!

Download: