Subcategories

Gary Moore - A Different Beat (1999) {Japan 1-st press}

Posted By: popsakov
Gary Moore - A Different Beat (1999) {Japan 1-st press}

Gary Moore - A Different Beat (1999)
EAC Rip | FLAC (Img) + Cue + Log ~ 435 Mb | MP3 CBR320 ~ 156 Mb
Scans (JPG, 300 dpi) ~ 24 Mb | RAR 5% Recovery
Blues Rock, Hard Rock, Electronic, Big Beat | Victor #VICP-60921

All credit to Gary Moore for having the courage to leap into the relative unknown with A Different Beat. It is indeed greatly removed from anything he had released prior to 1999. Perhaps it was the new-found freedom from the guitarist's contract with Virgin that fuelled the change of direction–that and Moore's obvious affinity with outfits along the lines of Apollo 440 and Fatboy Slim (to whom "Fatboy" is a tribute).

Gary Moore - A Different Beat (1999) {Japan 1-st press}

There's still opportunity for some trademark axe solos, thankfully, and hearing Moore's fretwork gymnastics over contemporary dance beats is a totally unique experience. Most impressive are "Lost in Your Love," given an impassioned vocal and instrumental performance, and the blissed-out "Surrender," the other end of the emotional scale entirely. "Bring My Baby Back," meanwhile is a marvellous pictorial description of a jilted lover's impending train ride to attempt a rescue of his former love. Moore and his production team serve up a pleasing array of dance beats, spiced up with inimitable melodies. A Phat Lizzy, perhaps?!
~ All Music

Gary Moore - A Different Beat (1999) {Japan 1-st press}


***************

Gary Moore - A Different Beat (1999) {Japan 1-st press}

Track List:

01. Go On Home [0:04:22.62]
02. Lost In Your Love [0:05:59.08]
03. Worry No More [0:05:07.17]
04. Fire [0:02:50.30]
05. Surrender [0:09:38.55]
06. House Full Of Blues [0:04:48.68]
07. Bring My Baby Back [0:04:51.12]
08. Can't Help Myself [0:05:51.63]
09. Fatboy [0:03:27.00]
10. We Want Love [0:05:43.40]
11. Can't Help Myself (E-Z Rollers Remix) [0:12:08.42]

Personnel:

Gary Moore – vocals, guitar, bass, keyboards
Gary Husband – drums
Roger King – keyboards, programming
Phil Nicholls – programming

Exact Audio Copy V1.1 from 23. June 2015

EAC extraction logfile from 8. June 2016, 11:09

Gary Moore / A Different Beat [VICP-60921]

Used drive : HL-DT-STBD-RE BH10LS38 Adapter: 1 ID: 1

Read mode : Secure
Utilize accurate stream : Yes
Defeat audio cache : Yes
Make use of C2 pointers : No

Read offset correction : 667
Overread into Lead-In and Lead-Out : No
Fill up missing offset samples with silence : Yes
Delete leading and trailing silent blocks : No
Null samples used in CRC calculations : Yes
Used interface : Installed external ASPI interface

Used output format : User Defined Encoder
Selected bitrate : 128 kBit/s
Quality : High
Add ID3 tag : No
Command line compressor : C:\Program Files (x86)\Exact Audio Copy\wavpack-4.60.1\wavpack.exe
Additional command line options : -hm -w "Year=%year%" -w "Genre=%genre%" %source% %dest%


TOC of the extracted CD

Track | Start | Length | Start sector | End sector
––––––––––––––––––––––––––––-
1 | 0:00.00 | 4:22.62 | 0 | 19711
2 | 4:22.62 | 5:59.08 | 19712 | 46644
3 | 10:21.70 | 5:07.17 | 46645 | 69686
4 | 15:29.12 | 2:50.30 | 69687 | 82466
5 | 18:19.42 | 9:38.55 | 82467 | 125871
6 | 27:58.22 | 4:48.68 | 125872 | 147539
7 | 32:47.15 | 4:51.12 | 147540 | 169376
8 | 37:38.27 | 5:51.63 | 169377 | 195764
9 | 43:30.15 | 3:27.00 | 195765 | 211289
10 | 46:57.15 | 5:43.40 | 211290 | 237054
11 | 52:40.55 | 12:08.42 | 237055 | 291696


Range status and errors

Selected range

Filename G:\Rips by Alder\Gary Moore - A Different Beat [VICP-60921].wav

Peak level 100.0 %
Extraction speed 7.6 X
Range quality 100.0 %
Test CRC 080B340D
Copy CRC 080B340D
Copy OK

No errors occurred


AccurateRip summary

Track 1 accurately ripped (confidence 5) [3167CFDF] (AR v2)
Track 2 accurately ripped (confidence 5) [20357441] (AR v2)
Track 3 accurately ripped (confidence 5) [AD518A71] (AR v2)
Track 4 accurately ripped (confidence 5) [572F2743] (AR v2)
Track 5 accurately ripped (confidence 5) [062BE45A] (AR v2)
Track 6 accurately ripped (confidence 5) [DE7D5712] (AR v2)
Track 7 accurately ripped (confidence 5) [EE1E39A5] (AR v2)
Track 8 accurately ripped (confidence 5) [DC775770] (AR v2)
Track 9 accurately ripped (confidence 5) [F088C17E] (AR v2)
Track 10 accurately ripped (confidence 5) [93D46921] (AR v2)
Track 11 accurately ripped (confidence 5) [FBD81A33] (AR v2)

All tracks accurately ripped

End of status report

–– CUETools DB Plugin V2.1.6

[CTDB TOCID: 71Q6.zTdfdfaNFpopbGiW4v886w-] found
Submit result: 71Q6.zTdfdfaNFpopbGiW4v886w- has been confirmed
Track | CTDB Status
1 | (11/11) Accurately ripped
2 | (11/11) Accurately ripped
3 | (11/11) Accurately ripped
4 | (11/11) Accurately ripped
5 | (11/11) Accurately ripped
6 | (11/11) Accurately ripped
7 | (11/11) Accurately ripped
8 | (11/11) Accurately ripped
9 | (11/11) Accurately ripped
10 | (11/11) Accurately ripped
11 | (11/11) Accurately ripped


==== Log checksum 9F563D44298BF8D0EEC841AB6F1076823580D34428B7C0A5AA5568C54B0BD6E7 ====

foobar2000 1.2.6 / Dynamic Range Meter 1.1.1
log date: 2016-06-09 14:06:56

––––––––––––––––––––––––––––––––––––––––
Analyzed: Gary Moore / A Different Beat [VICP-60921]
––––––––––––––––––––––––––––––––––––––––

DR Peak RMS Duration Track
––––––––––––––––––––––––––––––––––––––––
DR7 -1.00 dB -8.95 dB 4:23 01-Go On Home
DR8 0.00 dB -9.97 dB 5:59 02-Lost In Your Love
DR8 -0.50 dB -10.69 dB 5:07 03-Worry No More
DR6 -1.50 dB -9.56 dB 2:50 04-Fire
DR9 -0.50 dB -10.32 dB 9:39 05-Surrender
DR7 -0.50 dB -8.86 dB 4:49 06-House Full Of Blues
DR7 0.00 dB -9.89 dB 4:51 07-Bring My Baby Back
DR6 0.00 dB -8.45 dB 5:52 08-Can't Help Myself
DR8 0.00 dB -9.72 dB 3:27 09-Fatboy
DR6 -0.51 dB -8.67 dB 5:44 10-We Want Love
DR8 0.00 dB -9.61 dB 12:09 11-Can't Help Myself (E-Z Rollers Remix)
––––––––––––––––––––––––––––––––––––––––

Number of tracks: 11
Official DR value: DR7

Samplerate: 44100 Hz
Channels: 2
Bits per sample: 16
Bitrate: 893 kbps
Codec: FLAC
================================================================================

[CUETools log; Date: 09.06.2016 14:06:58; Version: 2.1.5]
[CTDB TOCID: 71Q6.zTdfdfaNFpopbGiW4v886w-] found.
Track | CTDB Status
1 | (12/12) Accurately ripped
2 | (12/12) Accurately ripped
3 | (12/12) Accurately ripped
4 | (12/12) Accurately ripped
5 | (12/12) Accurately ripped
6 | (12/12) Accurately ripped
7 | (12/12) Accurately ripped
8 | (12/12) Accurately ripped
9 | (12/12) Accurately ripped
10 | (12/12) Accurately ripped
11 | (12/12) Accurately ripped
[AccurateRip ID: 00185eb3-00d590c1-860f310b] found.
Track [ CRC | V2 ] Status
01 [68329f37|3167cfdf] (0+5/5) Accurately ripped
02 [85914bdd|20357441] (0+5/5) Accurately ripped
03 [a98965eb|ad518a71] (0+5/5) Accurately ripped
04 [579c33ba|572f2743] (0+5/5) Accurately ripped
05 [00cee6f5|062be45a] (0+5/5) Accurately ripped
06 [4faf283a|de7d5712] (0+5/5) Accurately ripped
07 [4b03e102|ee1e39a5] (0+5/5) Accurately ripped
08 [0aee1ff2|dc775770] (0+5/5) Accurately ripped
09 [4764ba87|f088c17e] (0+5/5) Accurately ripped
10 [03ed79a4|93d46921] (0+5/5) Accurately ripped
11 [9c63d70e|fbd81a33] (0+5/5) Accurately ripped

Track Peak [ CRC32 ] [W/O NULL] [ LOG ]
– 100,0 [080B340D] [43ED5C89] CRC32
01 89,1 [FEFCC581] [C516A465]
02 100,0 [C1E21C5B] [FD5254BA]
03 94,4 [5ACD0C3C] [6F62D4EE]
04 84,1 [EE1412D9] [CA034959]
05 94,4 [BC768EA8] [A9204100]
06 94,4 [8610A29F] [FC744FA2]
07 99,9 [A5061B75] [5A50BD2E]
08 99,9 [9830EBB7] [22D9F4D4]
09 100,0 [492CC0AC] [120F8306]
10 94,3 [33696F52] [1C99C006]
11 99,9 [87A69996] [47F6BD92]

Gary Moore - A Different Beat (1999) {Japan 1-st press}

Gary Moore - A Different Beat (1999) {Japan 1-st press}

See also:
Gary Moore - Blues For Greeny (1995)
Gary Moore - Dark Days In Paradise (1997)
Gary Moore - Old New Ballads Blues (2006) {Japan 1-st press}
Gary Moore - Close As You Get (2007) {Japan 1-st press}
Gary Moore - Bad For You Baby (2008) {Japan 1-st press}

All thanks go to Alder

More Gary Moore in my blog

Download:
Nitroflare: FLAC-part 1 | FLAC-part 2 | Scans | mp3