Subcategories
Tags
Language
Tags

Gary Moore - After Hours (1992) {2003, Remastered & Expanded}

Posted By: popsakov
Gary Moore - After Hours (1992) {2003, Remastered & Expanded}

Gary Moore - After Hours (1992) {2003, Remastered & Expanded}
EAC Rip | FLAC (Img) + Cue + Log ~ 488 Mb | MP3 CBR320 ~ 181 Mb
Full Scans ~ 104 Mb | 01:15:08 | RAR 5% Recovery
Blues Rock, Classic Rock | Virgin #7243 5 83669 2 1 / MOORECD9

Not wanting to leave a good thing behind, Moore reprises Still Got the Blues on its follow-up, After Hours. While his playing is just as impressive, the album feels a little calculated. Nevertheless, Moore's gutsy, impassioned playing makes the similarity easy to ignore.

~ Daevid Jehnzen, All Music

***************

Gary Moore - After Hours (1992) {2003, Remastered & Expanded}

Gary Moore - After Hours (1992) {2003, Remastered & Expanded}

Track List:

01. Cold Day In Hell [0:04:27.42]
02. Don't You Lie To Me (I Get Evil) [0:02:30.30]
03. Story Of The Blues [0:06:42.28]
04. Since I Met You Baby [0:02:52.30]
05. Separate Ways [0:04:54.32]
06. Only Fool In Town [0:03:52.35]
07. Key To Love [0:01:59.25]
08. Jumpin' At Shadows [0:04:20.10]
09. The Blues Is Alright [0:05:44.18]
10. The Hurt Inside [0:05:53.02]
11. Nothing's The Same [0:05:06.50]
Bonus Tracks:
12. All Time Low [0:08:40.03]
13. Woke Up This Morning [0:03:51.42]
14. Movin' On Down The Road [0:03:35.35]
15. Don't Start Me Talking [0:03:04.18]
16. Once In A Blue Moon [0:07:34.25]

Personnel:
Gary Moore – guitar, vocals
Will Lee, Bob Daisley, Johnny B. Gaydon – bass
Graham Walker, Anton Fig – drums
Tommy Eyre – keyboards
Martin Drover – trumpet
Frank Mead, Nick Pentelow, Nick Payn – saxophone
Andrew Love, Wayne Jackson – The Memphis Horns
Carol Kenyon, Linda Taylor – vocals
Richard Morgan – oboe

Special guests:
B.B. King "Since I Met You Baby"
Albert Collins "The Blues Is Alright"

Exact Audio Copy V1.0 beta 3 from 29. August 2011

EAC extraction logfile from 5. July 2017, 21:53

Gary Moore / After Hours

Used drive : PLEXTOR DVDR PX-L890SA Adapter: 5 ID: 1

Read mode : Secure
Utilize accurate stream : Yes
Defeat audio cache : Yes
Make use of C2 pointers : No

Read offset correction : 6
Overread into Lead-In and Lead-Out : No
Fill up missing offset samples with silence : Yes
Delete leading and trailing silent blocks : No
Null samples used in CRC calculations : Yes
Used interface : Native Win32 interface for Win NT & 2000

Used output format : User Defined Encoder
Selected bitrate : 768 kBit/s
Quality : High
Add ID3 tag : No
Command line compressor : C:\Program Files (x86)\Exact Audio Copy\Flac\flac.exe
Additional command line options : -V -8 -T "Date=%year%" -T "Genre=%genre%" %source%


TOC of the extracted CD

Track | Start | Length | Start sector | End sector
––––––––––––––––––––––––––––-
1 | 0:00.00 | 4:27.42 | 0 | 20066
2 | 4:27.42 | 2:30.30 | 20067 | 31346
3 | 6:57.72 | 6:42.28 | 31347 | 61524
4 | 13:40.25 | 2:52.30 | 61525 | 74454
5 | 16:32.55 | 4:54.32 | 74455 | 96536
6 | 21:27.12 | 3:52.35 | 96537 | 113971
7 | 25:19.47 | 1:59.25 | 113972 | 122921
8 | 27:18.72 | 4:20.10 | 122922 | 142431
9 | 31:39.07 | 5:44.18 | 142432 | 168249
10 | 37:23.25 | 5:53.02 | 168250 | 194726
11 | 43:16.27 | 5:06.50 | 194727 | 217726
12 | 48:23.02 | 8:40.03 | 217727 | 256729
13 | 57:03.05 | 3:51.42 | 256730 | 274096
14 | 60:54.47 | 3:35.35 | 274097 | 290256
15 | 64:30.07 | 3:04.18 | 290257 | 304074
16 | 67:34.25 | 7:34.25 | 304075 | 338149


Range status and errors

Selected range

Filename H:\MUSIC\1992. Gary Moore - After Hours (Virgin 7243 5 83669 2 1, EU)\Gary Moore - After Hours.wav

Peak level 99.1 %
Extraction speed 10.1 X
Range quality 100.0 %
Test CRC E07F75C0
Copy CRC E07F75C0
Copy OK

No errors occurred


AccurateRip summary

Track 1 accurately ripped (confidence 2) [25B99999] (AR v2)
Track 2 accurately ripped (confidence 2) [B55B0360] (AR v2)
Track 3 accurately ripped (confidence 2) [48D9A5B3] (AR v2)
Track 4 accurately ripped (confidence 2) [C0C449FB] (AR v2)
Track 5 accurately ripped (confidence 2) [04E31310] (AR v2)
Track 6 accurately ripped (confidence 2) [7F15C13E] (AR v2)
Track 7 accurately ripped (confidence 2) [EE3ADD9F] (AR v2)
Track 8 accurately ripped (confidence 2) [BE778C9E] (AR v2)
Track 9 accurately ripped (confidence 2) [0E487AC5] (AR v2)
Track 10 accurately ripped (confidence 2) [7B720A0E] (AR v2)
Track 11 accurately ripped (confidence 2) [296BD80E] (AR v2)
Track 12 accurately ripped (confidence 2) [4DB45A73] (AR v2)
Track 13 accurately ripped (confidence 2) [0FEC5554] (AR v2)
Track 14 accurately ripped (confidence 2) [34AA4F4F] (AR v2)
Track 15 accurately ripped (confidence 2) [E434823B] (AR v2)
Track 16 accurately ripped (confidence 2) [FB40FAA2] (AR v2)

All tracks accurately ripped

End of status report

==== Log checksum 8951695C3C44ABBA650E62E7843E133781A68E30DB97D93B4A90F77945888FDB ====

[CUETools log; Date: 02.08.2017 23:32:41; Version: 2.1.5]
[CTDB TOCID: fKkNeZN4_mTqAXemjfb8N.Pycks-] found.
Track | CTDB Status
1 | ( 69/206) Accurately ripped
2 | ( 69/206) Accurately ripped
3 | ( 69/206) Accurately ripped
4 | ( 69/206) Accurately ripped
5 | ( 69/206) Accurately ripped
6 | ( 69/206) Accurately ripped
7 | ( 72/206) Accurately ripped
8 | ( 69/206) Accurately ripped
9 | ( 69/206) Accurately ripped
10 | ( 69/206) Accurately ripped
11 | ( 69/206) Accurately ripped
12 | ( 72/206) Accurately ripped
13 | ( 69/206) Accurately ripped
14 | ( 69/206) Accurately ripped
15 | ( 69/206) Accurately ripped
16 | ( 71/206) Accurately ripped
[AccurateRip ID: 00294f46-01f726b3-f0119c10] found.
Track [ CRC | V2 ] Status
01 [add35ba8|25b99999] (000+004/132) Accurately ripped
02 [8b915bcd|b55b0360] (000+004/134) Accurately ripped
03 [ce549236|48d9a5b3] (000+004/133) Accurately ripped
04 [a241eb0f|c0c449fb] (000+004/132) Accurately ripped
05 [632d9ff6|04e31310] (000+004/134) Accurately ripped
06 [c19cd797|7f15c13e] (000+004/132) Accurately ripped
07 [7ec1a576|ee3add9f] (000+004/132) Accurately ripped
08 [17903e42|be778c9e] (000+004/133) Accurately ripped
09 [b4eced2c|0e487ac5] (000+004/134) Accurately ripped
10 [9d5c2695|7b720a0e] (000+004/132) Accurately ripped
11 [bc698d89|296bd80e] (000+004/131) Accurately ripped
12 [e8c6dfae|4db45a73] (000+004/134) Accurately ripped
13 [fb846355|0fec5554] (000+004/134) Accurately ripped
14 [46cc8ebf|34aa4f4f] (000+004/133) Accurately ripped
15 [d293fcf7|e434823b] (000+004/133) Accurately ripped
16 [ac9c3c0a|fb40faa2] (000+004/129) Accurately ripped
Offsetted by -604:
01 [599b5668] (006/132) Accurately ripped
02 [e37c43f1] (006/134) Accurately ripped
03 [7552667e] (006/133) Accurately ripped
04 [341f581f] (006/132) Accurately ripped
05 [e3cde8aa] (006/134) Accurately ripped
06 [1434180f] (006/132) Accurately ripped
07 [bbc11c79] (006/132) Accurately ripped
08 [09a31a7f] (006/133) Accurately ripped
09 [b16f98f0] (006/134) Accurately ripped
10 [932396ad] (005/132) Accurately ripped
11 [64871991] (006/131) Accurately ripped
12 [ee0f639e] (006/134) Accurately ripped
13 [15ef8705] (006/134) Accurately ripped
14 [f31b5f6b] (006/133) Accurately ripped
15 [ee8f534b] (006/133) Accurately ripped
16 [557216a6] (006/129) Accurately ripped
Offsetted by 72:
01 [92f00829] (014/132) Accurately ripped
02 [30451c84] (014/134) Accurately ripped
03 [7e9b22be] (014/133) Accurately ripped
04 [4abde986] (014/132) Accurately ripped
05 [b412ab27] (014/134) Accurately ripped
06 [e6071079] (014/132) Accurately ripped
07 [bc5b68f9] (016/132) Accurately ripped
08 [49fe51da] (014/133) Accurately ripped
09 [ac5720ac] (014/134) Accurately ripped
10 [4349e6b3] (013/132) Accurately ripped
11 [fbb633f9] (013/131) Accurately ripped
12 [0f57f37f] (016/134) Accurately ripped
13 [6f732dfa] (014/134) Accurately ripped
14 [329d6f1e] (014/133) Accurately ripped
15 [36583624] (014/133) Accurately ripped
16 [7bdebc51] (015/129) Accurately ripped
Offsetted by 30:
01 [137dfb48] (000/132) No match (V2 was not tested)
02 [e1e72cab] (000/134) No match (V2 was not tested)
03 [f8e5a1f2] (000/133) No match (V2 was not tested)
04 [6310c647] (000/132) No match (V2 was not tested)
05 [b856d44c] (000/134) No match (V2 was not tested)
06 [ffa1327b] (000/132) No match (V2 was not tested)
07 [86417882] (000/132) No match (V2 was not tested)
08 [5ca89cf2] (000/133) No match (V2 was not tested)
09 [03eee9ba] (000/134) No match (V2 was not tested)
10 [b30f4729] (000/132) No match (V2 was not tested)
11 [e2af4a65] (000/131) No match (V2 was not tested)
12 [e36da7f6] (000/134) No match (V2 was not tested)
13 [a059c4bd] (000/134) No match (V2 was not tested)
14 [04992c39] (000/133) No match (V2 was not tested)
15 [e0724ffd] (000/133) No match (V2 was not tested)
16 [ad8c86cc] (000/129) No match (V2 was not tested)
Offsetted by 715:
01 [4b6de547] (000/132) No match (V2 was not tested)
02 [0b140241] (000/134) No match (V2 was not tested)
03 [a1f9bf76] (000/133) No match (V2 was not tested)
04 [7a3e8687] (000/132) No match (V2 was not tested)
05 [e01e8ebc] (000/134) No match (V2 was not tested)
06 [7f29a5a1] (000/132) No match (V2 was not tested)
07 [9f9e4c20] (003/132) Accurately ripped
08 [2cf244ba] (000/133) No match (V2 was not tested)
09 [1cd6fbbd] (000/134) No match (V2 was not tested)
10 [34486a93] (000/132) No match (V2 was not tested)
11 [65cd1444] (000/131) No match (V2 was not tested)
12 [68b767a6] (003/134) Accurately ripped
13 [041520ae] (000/134) No match (V2 was not tested)
14 [5750c7c6] (000/133) No match (V2 was not tested)
15 [5df3b956] (000/133) No match (V2 was not tested)
16 [d05c4d24] (002/129) Accurately ripped
Offsetted by 721:
01 [1fd815ae] (000/132) No match (V2 was not tested)
02 [bfddf9a0] (000/134) No match (V2 was not tested)
03 [718fa1b6] (000/133) No match (V2 was not tested)
04 [1dd2ac1c] (000/132) No match (V2 was not tested)
05 [697d2159] (000/134) No match (V2 was not tested)
06 [e32dd269] (000/132) No match (V2 was not tested)
07 [83ebe676] (000/132) No match (V2 was not tested)
08 [d6629115] (000/133) No match (V2 was not tested)
09 [088a974d] (000/134) No match (V2 was not tested)
10 [5264582e] (000/132) No match (V2 was not tested)
11 [834946f4] (000/131) No match (V2 was not tested)
12 [08602734] (000/134) No match (V2 was not tested)
13 [fa260261] (000/134) No match (V2 was not tested)
14 [0f61256a] (000/133) No match (V2 was not tested)
15 [8372efb0] (000/133) No match (V2 was not tested)
16 [3d7fc485] (000/129) No match (V2 was not tested)

Track Peak [ CRC32 ] [W/O NULL] [ LOG ]
– 99,1 [E07F75C0] [201A277A] CRC32
01 97,5 [8C6393E8] [80C36CB8]
02 98,9 [D1C332F6] [6A007645]
03 99,1 [2451980B] [2AF90814]
04 99,1 [0C02AA5B] [3AE1A302]
05 99,1 [F7467BB9] [52EB7313]
06 98,8 [9DF738EE] [6E57F39D]
07 96,2 [07ECD229] [88F22CD1]
08 98,4 [D6AA4DB6] [0EDA8CD2]
09 97,9 [73325E3E] [D089031E]
10 96,3 [FAFA8C72] [A8967447]
11 58,7 [6D67B977] [909B5883]
12 98,4 [0CBA24E4] [F922E9D5]
13 92,7 [0DECC88A] [37F358E4]
14 95,9 [73080FE5] [4EFC4791]
15 94,5 [91DAF836] [3A78F80B]
16 94,6 [1D23AC3D] [30825621]

Gary Moore - After Hours (1992) {2003, Remastered & Expanded}


All thanks go to snakesharmer

>>> Gary Moore in my Blog <<<

DOWNLOAD: