Subcategories

Gary Moore - Bad For You Baby (2008) {Japan 1-st Press}

Posted By: popsakov
Gary Moore - Bad For You Baby (2008) {Japan 1-st Press}

Gary Moore - Bad For You Baby (2008) {Japan 1-st Press}
EAC Rip | FLAC (Img) + Cue + Log ~ 447 Mb | MP3 CBR320 ~ 174 Mb
Full Scans | 00:59:58 | RAR 5% Recovery
Electric Blues, Blues Rock | Victor #VICP-64527

Bad for You Baby is a 2008 album by Northern Irish blues guitarist and singer-songwriter Gary Moore. It features a similar hard rock influenced sound in comparison to the artist's previous releases over the past several years before, with two songs best known for their Muddy Waters' done versions being covered by Moore. The release also notably includes collaborative work with musicians Cassie Taylor and Otis Taylor. It is the last studio album recorded by Moore; he died on 6 February 2011.

Another year, another Gary Moore blues-rock album nearly interchangeable with the last. That's no problem for fans or even newcomers, because despite the surface similarities between releases, Moore never seems to be going through the motions for the sake of further bulking up his already substantial catalog. His tough guitar lines remain biting yet classy, and his underappreciated voice is strong and convincing on originals and covers that nail all of the blues-rock bases without sounding rote. While there are no surprises here, Bad for You Baby is far from a disappointment. Moore continues a string of rugged, post-hard rock, power blues that he has carved his niche in since 1990's Still Got the Blues. He applies his throaty vocals and feral guitar to a pair of Muddy Waters tunes to impressive effect. No one will mistake his versions of Waters' "Walking Through the Park" or "Someday Baby" for the classic Chess era nuggets they are. Yet Moore's rocked up attack hits the mark for being relatively faithful to their melodies even as he wields his power blues sledgehammer. Moore boogies through J.B. Lenoir's "Mojo Boogie" like he invented the style, and even if his husky vocals will never be mistaken for Lenoir's reedy, high pitched singing, he tears into the tune with enough energy to shake up anything in the Johnny Winter songbook. Guitar shredders will thrill to the hot fret acrobatics of the double-time "Down the Line," and those who thought Led Zeppelin's first album was their finest hour should chow down on the hard rocking Jimmy Page-isms of "Umbrella Man." Moore writes one for the ladies on the sweet ballad "Holding On," which won't win any awards for lyrical complexity but boasts a lovely melody and Otis Taylor's daughter, Cassie, on backing vocals. Cassie returns with her dad (plucking nearly inaudible banjo) for the swamped up "Preacher Man Blues" that features some surprisingly effective harp from Moore, the only time he plays it on this disc. Al Kooper's slow, yearning "I Love You More Than You'll Ever Know" from the New Yorker's Blood, Sweat & Tears stint is given an extended, nearly 11-minute treatment that's as compelling as BS&T's. Those hoping for Moore to expand his horizons will need to wait a little longer, but for existing followers and especially those new to his gutsy approach, Bad for You Baby more than fills the bill.


~ Hal Horowitz, All Music

***************

Gary Moore - Bad For You Baby (2008) {Japan 1-st Press}

Track List:

01. Bad For You Baby [0:02:54.28]
02. Down The Line [0:02:56.12]
03. Umbrella Man [0:03:38.48]
04. Holding On [0:03:47.35]
05. Walkin' Thru The Park [0:03:00.17]
06. I Love You More Than You'll Ever Know [0:10:36.48]
07. Mojo Boogie [0:03:32.72]
08. Someday Baby [0:03:34.53]
09. Did You Ever Feel Lonely? [0:06:10.70]
10. Preacher Man Blues [0:05:58.62]
11. Trouble Ain't Far Behind [0:09:44.68]
12. Picture On The Wall (Bonus Track) [0:04:02.46]

Exact Audio Copy V1.1 from 23. June 2015

EAC extraction logfile from 12. February 2016, 11:46

Gary Moore / Bad for you baby [VICP-64527]

Used drive : HL-DT-STBD-RE BH10LS38 Adapter: 1 ID: 1

Read mode : Secure
Utilize accurate stream : Yes
Defeat audio cache : Yes
Make use of C2 pointers : No

Read offset correction : 667
Overread into Lead-In and Lead-Out : No
Fill up missing offset samples with silence : Yes
Delete leading and trailing silent blocks : No
Null samples used in CRC calculations : Yes
Used interface : Installed external ASPI interface

Used output format : User Defined Encoder
Selected bitrate : 128 kBit/s
Quality : High
Add ID3 tag : No
Command line compressor : C:\Program Files (x86)\Exact Audio Copy\wavpack-4.60.1\wavpack.exe
Additional command line options : -hm -w "Year=%year%" -w "Genre=%genre%" %source% %dest%


TOC of the extracted CD

Track | Start | Length | Start sector | End sector
––––––––––––––––––––––––––––-
1 | 0:00.00 | 2:54.28 | 0 | 13077
2 | 2:54.28 | 2:56.12 | 13078 | 26289
3 | 5:50.40 | 3:38.48 | 26290 | 42687
4 | 9:29.13 | 3:47.35 | 42688 | 59747
5 | 13:16.48 | 3:00.17 | 59748 | 73264
6 | 16:16.65 | 10:36.48 | 73265 | 121012
7 | 26:53.38 | 3:32.72 | 121013 | 136984
8 | 30:26.35 | 3:34.53 | 136985 | 153087
9 | 34:01.13 | 6:10.70 | 153088 | 180907
10 | 40:12.08 | 5:58.62 | 180908 | 207819
11 | 46:10.70 | 9:44.68 | 207820 | 251687
12 | 55:55.63 | 4:02.46 | 251688 | 269883


Range status and errors

Selected range

Filename G:\Rips by Alder\Gary Moore - Bad for you baby [VICP-64527].wav

Peak level 100.0 %
Extraction speed 7.5 X
Range quality 100.0 %
Test CRC 0F3E409A
Copy CRC 0F3E409A
Copy OK

No errors occurred


AccurateRip summary

Track 1 accurately ripped (confidence 4) [3F27ED2B] (AR v2)
Track 2 accurately ripped (confidence 4) [738B9C58] (AR v2)
Track 3 accurately ripped (confidence 4) [5160BB28] (AR v2)
Track 4 accurately ripped (confidence 4) [AF558E20] (AR v2)
Track 5 accurately ripped (confidence 4) [DB60A0ED] (AR v2)
Track 6 accurately ripped (confidence 4) [0D54D748] (AR v2)
Track 7 accurately ripped (confidence 4) [698C5DE2] (AR v2)
Track 8 accurately ripped (confidence 4) [6CB17B20] (AR v2)
Track 9 accurately ripped (confidence 4) [39DFF6FB] (AR v2)
Track 10 accurately ripped (confidence 4) [0A98EE6D] (AR v2)
Track 11 accurately ripped (confidence 4) [C6D7380B] (AR v2)
Track 12 accurately ripped (confidence 4) [A22D1E79] (AR v2)

All tracks accurately ripped

End of status report

–– CUETools DB Plugin V2.1.6

[CTDB TOCID: ISgIUZtIUIxl7H75A0DlXfM_tm8-] found
Submit result: already submitted
Track | CTDB Status
1 | (8/8) Accurately ripped
2 | (8/8) Accurately ripped
3 | (8/8) Accurately ripped
4 | (8/8) Accurately ripped
5 | (8/8) Accurately ripped
6 | (8/8) Accurately ripped
7 | (8/8) Accurately ripped
8 | (8/8) Accurately ripped
9 | (8/8) Accurately ripped
10 | (8/8) Accurately ripped
11 | (8/8) Accurately ripped
12 | (8/8) Accurately ripped


==== Log checksum 97C6AB03597F577F5784F84F53E88DBF13C63FA6B2E63F4B46C8284C9E46D5DA ====

[CUETools log; Date: 20.02.2016 20:31:09; Version: 2.1.5]
[CTDB TOCID: ISgIUZtIUIxl7H75A0DlXfM_tm8-] found.
Track | CTDB Status
1 | (8/8) Accurately ripped
2 | (8/8) Accurately ripped
3 | (8/8) Accurately ripped
4 | (8/8) Accurately ripped
5 | (8/8) Accurately ripped
6 | (8/8) Accurately ripped
7 | (8/8) Accurately ripped
8 | (8/8) Accurately ripped
9 | (8/8) Accurately ripped
10 | (8/8) Accurately ripped
11 | (8/8) Accurately ripped
12 | (8/8) Accurately ripped
[AccurateRip ID: 001771c7-00e44080-af0e0e0c] found.
Track [ CRC | V2 ] Status
01 [4710b8ce|3f27ed2b] (2+4/6) Accurately ripped
02 [fb705964|738b9c58] (2+4/6) Accurately ripped
03 [5ba9eca0|5160bb28] (2+4/6) Accurately ripped
04 [27cd0a6f|af558e20] (2+4/6) Accurately ripped
05 [49803e2b|db60a0ed] (2+4/6) Accurately ripped
06 [f2b3f263|0d54d748] (2+4/6) Accurately ripped
07 [c901fc3f|698c5de2] (2+4/6) Accurately ripped
08 [506fdde2|6cb17b20] (2+4/6) Accurately ripped
09 [1e9a5c86|39dff6fb] (2+4/6) Accurately ripped
10 [7909d3f7|0a98ee6d] (2+4/6) Accurately ripped
11 [d64c551c|c6d7380b] (2+4/6) Accurately ripped
12 [39b6b4a8|a22d1e79] (2+4/6) Accurately ripped

Track Peak [ CRC32 ] [W/O NULL] [ LOG ]
– 100,0 [0F3E409A] [4FD3EDF4] CRC32
01 100,0 [AC8F459B] [A52682A4]
02 90,7 [D72CCCBD] [249221B9]
03 100,0 [DAA63703] [9E2CEBA8]
04 100,0 [ACE97AB6] [1423F079]
05 100,0 [38EAFC0A] [2D9FC2FB]
06 95,7 [688DDE95] [097B382A]
07 100,0 [9A96291F] [E2D48219]
08 100,0 [50F1A386] [3313EBB5]
09 100,0 [CA14601F] [9673C848]
10 100,0 [A7CE80DB] [0F5A7ACE]
11 100,0 [4E977269] [EBD9783C]
12 80,3 [C63D2B11] [FCE7CB2C]

Gary Moore - Bad For You Baby (2008) {Japan 1-st Press}


All thanks go to Alder

>>> Gary Moore in my Blog <<<

DOWNLOAD: