Subcategories

Gary Burton & Keith Jarrett - Burton & Jarret-Throb (1994) [Repost]

Posted By: tiburon
Gary Burton & Keith Jarrett - Burton & Jarret-Throb (1994) [Repost]

Gary Burton & Keith Jarrett - Burton & Jarret-Throb (1994)
EAC 0.95b3 | FLAC tracks level 8 | Cue+Log+M3U | Full Scans 300dpi | 464MB + 5% Recovery
Genre: Jazz

During his years at Atlantic, Burton became a major player on vibes featuring a cooler, less blues-oriented technique that didn't sacrifice passion or individuality, and he also was among the earliest jazz musicians to incorporate other elements into their style without losing their improvisational outlook. Both areas are displayed on this 14-cut anthology presenting two separate Burton albums. The first five cuts were an LP teaming him with pianist Keith Jarrett; it proved a most intriguing match, with Jarrett reigning in his excesses, playing with flair, and never failing to click with Burton. The other nine songs were on the LP Throb, in which Burton continued the jazz-cum-rock and country experimentation that marked other LPs like Tennessee Firebird and Duster.
Track List

Gary Burton & Keith Jarrett - Burton & Jarret (1971)
01. Grow Your Own 4:54
02. Moon Child In Your Quiet Place 7:23
03. Como En Vietnam 7:05
04. Fortune Smiles 8:32
05. The Raven Speaks 8:19

musicians
Gary Burton - vibes
Keith Jarrett - piano, electric piano, soprano sax
Sam Brown - guitar
Steve Swallow - bass
Bill Goodwin - drums

Produced by Joel Dorn

Gary Burton - Throb (1969)
06. Henniger Flats 4:22
07. Turn Of The Century 5:03
08. Chickens 2:55
09. Arise Her Eyes 3:45
10. Prime Time 3:59
11. Throb 4:27
12. Doin The Pig 3:40
13. Triple Portrait 4:25
14. Some Echoes 6:54

musicians
Gary Burton - vibes. piano
Jerry Hahn - guitar
Richard Greene - violin
Steve Swallow - bass
Bill Goodwin - drums

Produced by Joel Dorn


EAC extraction logfile from 24. August 2007, 16:09 for CD
Gary Burton & Keith Jarrett / Burton & Jarret-Throb

Used drive : PLEXTOR DVDR PX-716A Adapter: 2 ID: 0
Read mode : Secure with NO C2, accurate stream, disable cache
Read offset correction : 30
Overread into Lead-In and Lead-Out : No

Used output format : C:\Programmi\Exact Audio Copy\flac-1.1.2-win\bin\flac.exe (User Defined Encoder)
32 kBit/s
Additional command line options : -8 -V %s

Other options :
Fill up missing offset samples with silence : Yes
Delete leading and trailing silent blocks : No
Installed external ASPI interface


Track 1
Filename F:\[MyRip]\01 - Grow Your Own.wav

Pre-gap length 0:00:02.00

Peak level 99.7 %
Track quality 100.0 %
Test CRC AF5744CD
Copy CRC AF5744CD
Copy OK

Track 2
Filename F:\[MyRip]\02 - Moon Child In Your Quiet Place.wav

Pre-gap length 0:00:02.60

Peak level 100.0 %
Track quality 100.0 %
Test CRC 01765B96
Copy CRC 01765B96
Copy OK

Track 3
Filename F:\[MyRip]\03 - Como En Vietnam.wav

Pre-gap length 0:00:02.63

Peak level 97.4 %
Track quality 100.0 %
Test CRC A093412F
Copy CRC A093412F
Copy OK

Track 4
Filename F:\[MyRip]\04 - Fortune Smiles.wav

Pre-gap length 0:00:02.60

Peak level 100.0 %
Track quality 99.9 %
Test CRC 64114CE4
Copy CRC 64114CE4
Copy OK

Track 5
Filename F:\[MyRip]\05 - The Raven Speaks.wav

Pre-gap length 0:00:02.60

Peak level 100.0 %
Track quality 100.0 %
Test CRC DFD62C75
Copy CRC DFD62C75
Copy OK

Track 6
Filename F:\[MyRip]\06 - Henniger Flats.wav

Pre-gap length 0:00:02.57

Peak level 93.7 %
Track quality 100.0 %
Test CRC EDE152A0
Copy CRC EDE152A0
Copy OK

Track 7
Filename F:\[MyRip]\07 - Turn Of The Century.wav

Pre-gap length 0:00:02.62

Peak level 100.0 %
Track quality 100.0 %
Test CRC 1042D13E
Copy CRC 1042D13E
Copy OK

Track 8
Filename F:\[MyRip]\08 - Chickens.wav

Pre-gap length 0:00:02.65

Peak level 100.0 %
Track quality 100.0 %
Test CRC AA52AA5A
Copy CRC AA52AA5A
Copy OK

Track 9
Filename F:\[MyRip]\09 - Arise Her Eyes.wav

Pre-gap length 0:00:02.60

Peak level 98.1 %
Track quality 100.0 %
Test CRC 671BE7A8
Copy CRC 671BE7A8
Copy OK

Track 10
Filename F:\[MyRip]\10 - Prime Time.wav

Pre-gap length 0:00:03.10

Peak level 96.8 %
Track quality 100.0 %
Test CRC 29490B7E
Copy CRC 29490B7E
Copy OK

Track 11
Filename F:\[MyRip]\11 - Throb.wav

Pre-gap length 0:00:03.60

Peak level 100.0 %
Track quality 100.0 %
Test CRC EA7D3E7C
Copy CRC EA7D3E7C
Copy OK

Track 12
Filename F:\[MyRip]\12 - Doin The Pig.wav

Pre-gap length 0:00:02.60

Peak level 96.2 %
Track quality 99.9 %
Test CRC AB1C009B
Copy CRC AB1C009B
Copy OK

Track 13
Filename F:\[MyRip]\13 - Triple Portrait.wav

Pre-gap length 0:00:02.60

Peak level 100.0 %
Track quality 100.0 %
Test CRC 622E2719
Copy CRC 622E2719
Copy OK

Track 14
Filename F:\[MyRip]\14 - Some Echoes.wav

Pre-gap length 0:00:02.57

Peak level 100.0 %
Track quality 100.0 %
Test CRC 5A0130DD
Copy CRC 5A0130DD
Copy OK

No errors occured


End of status report


––––––––––––––––––––––––––––––––––––––––
Analyzed: Gary Burton & Keith Jarrett / Burton & Jarrett - Throb
––––––––––––––––––––––––––––––––––––––––

DR Peak RMS Duration Track
––––––––––––––––––––––––––––––––––––––––
DR11 -0.02 dB -13.64 dB 4:54 ?-01 - Grow Your Own
DR13 0.00 dB -17.89 dB 7:23 ?-02 - Moon Child In Your Quiet Place
DR13 -0.23 dB -16.74 dB 7:05 ?-03 - Como En Vietnam
DR13 0.00 dB -18.20 dB 8:32 ?-04 - Fortune Smiles
DR13 0.00 dB -14.68 dB 8:19 ?-05 - The Raven Speaks
DR11 -0.56 dB -13.94 dB 4:27 ?-06 - Henniger Flats
DR11 0.00 dB -15.03 dB 5:08 ?-07 - Turn Of The Century
DR11 0.00 dB -13.71 dB 2:29 ?-08 - Chickens
DR11 -0.16 dB -15.26 dB 3:51 ?-09 - Arise Her Eyes
DR11 -0.28 dB -13.82 dB 4:07 ?-10 - Prime Time
DR11 0.00 dB -15.71 dB 4:33 ?-11 - Throb
DR11 -0.33 dB -13.41 dB 3:47 ?-12 - Doin The Pig
DR13 0.00 dB -15.00 dB 4:29 ?-13 - Triple Portrait
DR11 0.00 dB -13.62 dB 6:59 ?-14 - Some Echoes
––––––––––––––––––––––––––––––––––––––––

Number of tracks: 14
Official DR value: DR12

Samplerate: 44100 Hz
Channels: 2
Bits per sample: 16
Bitrate: 930 kbps
Codec: FLAC
================================================================================

Gary Burton & Keith Jarrett - Burton & Jarret-Throb (1994) [Repost]
Gary Burton & Keith Jarrett - Burton & Jarret-Throb (1994) [Repost]
Gary Burton & Keith Jarrett - Burton & Jarret-Throb (1994) [Repost]


Rip by Sarchiapone