Subcategories

Gary Burton Quartet - Picture This (1982/2019) {ECM 1226}

Posted By: tiburon
Gary Burton Quartet - Picture This (1982/2019) {ECM 1226}

Gary Burton Quartet - Picture This (1982/2019) {ECM 1226}
WEB | FLAC tracks | Front | 254MB + 5% Recovery
MP3 CBR 320 Kbps | 103MB + 5% Recovery
Genre: Jazz, Post-Bop, Fusion

As I listened to Picture This for the first time, spring had just begun, and the music could hardly have been more fitting. Like an animal emerging from hibernation, its joyous frolics resonate in heart and mind with equal wit. Burton’s breath of fresh air is easy on the ears, never bogging us down with overly intellectual presumptions. For this transient quartet, he finds himself fronting a trio comprised of Jim Odgren on alto sax, Steve Swallow on bass, and Mike Hyman on drums. The mingling throughout from the two leads makes for some evocative motives and adds a curl to every letter written. Burton has uncovered some of the most potent melodies in ECM’s dense and knotted trees. Every strike of his mallet is like a woodpecker, revealing that which only the most attuned ears can hear.
Track List
1. Tanglewood '63 9:05
2. Waltz 6:02
3. Dreams So Real 7:18
4. Tierra Del Fuego 7:04
5. Duke Ellington's Sound Of Love 8:09
6. Skylight 7:14

musicians
Gary Burton - vibraharp
Jim Odgren, alto saxophone
Steve Swallow, bass
Mike Hyman, drums

Recorded January 1982 at Columbia Recording Studios, New York

Produced by Hans Wendl


AUDIOCHECKER v2.0 beta (build 457) - by Dester - opdester@freemail.hu
~~~~~~~~~~~~~~~~~~~~~~~~~~~~~~~~~~
-=== DO NOT EDIT THIS FILE! ===-

Path: …\Gary Burton Quartet - Picture This (1982) [FLAC]

1 -=- 01. Tanglewood '63.flac -=- CDDA (100%)
2 -=- 02. Waltz.flac -=- CDDA (100%)
3 -=- 03. Dreams So Real.flac -=- CDDA (100%)
4 -=- 04. Tierra Del Fuego.flac -=- CDDA (100%)
5 -=- 05. Duke Ellington's Sound Of Love.flac -=- CDDA (100%)
6 -=- 06. Skylight.flac -=- CDDA (100%)

Summary 100,00% CDDA

139473860


foobar2000 1.3.13 / Dynamic Range Meter 1.1.1
log date: 2019-11-19 12:08:50

––––––––––––––––––––––––––––––––––––––––
Analyzed: Gary Burton / Picture This
––––––––––––––––––––––––––––––––––––––––

DR Peak RMS Duration Track
––––––––––––––––––––––––––––––––––––––––
DR13 -2.47 dB -17.87 dB 9:06 01-Tanglewood '63
DR13 -1.49 dB -16.98 dB 6:03 02-Waltz
DR12 -3.62 dB -20.25 dB 7:19 03-Dreams So Real
DR13 -1.86 dB -17.44 dB 7:05 04-Tierra Del Fuego
DR12 -5.41 dB -20.20 dB 8:13 05-Duke Ellington's Sound Of Love
DR12 -1.14 dB -17.28 dB 7:16 06-Skylight
––––––––––––––––––––––––––––––––––––––––

Number of tracks: 6
Official DR value: DR12

Samplerate: 44100 Hz
Channels: 2
Bits per sample: 16
Bitrate: 859 kbps
Codec: FLAC
================================================================================


Thanks to the original customer