Subcategories

Gary Graden, REbaroque, S:t Jacobs Chamber Choir - Bach: St John Passion (2012)

Posted By: ArlegZ
Gary Graden, REbaroque, S:t Jacobs Chamber Choir - Bach: St John Passion (2012)

Gary Graden, REbaroque, S:t Jacobs Chamber Choir - Bach: St John Passion / Johannes-Passion (2012)
EAC | FLAC | Image (Cue & Log) ~ 570 Mb | Total time: 33:59+72:12 | Scans included
Classical | Label: Proprius | # PRCD2065 | Recorded: 2011

Gary Graden and the St. Jacobs Chamber Choir have performed the St. John Passion in the St. Jacobs Church regularly since 1990, the last 13 years together with Maria Lindal and her REbaroque ensemble. Though the St. John Passion has become something of a staple in Sweden's churches at Easter, there have been very few recordings with Swedish performers. This release documents not only the long collaboration between the St. Jacobs Chamber Choir and REbaroque, but is also the first recording of a tradition that has existed in the St. Jacobs Church for almost seven decades.

Performer:
Mikael Stenbaek, tenor (Evangelist & arias)
Håkan Ekenäs, bass (Jesus & arias)
Lars Johansson Brissman, bass (Pilate & arias)
Jeanette Köhn, soprano
Mikael Bellini, countertenor
S:t Jacobs Chamber Choir
REbaroque
Conductor - Gary Graden

Track List:
CD1:
01. Part 1. 1. Herr, unser Herrscher, dessen Ruhm in allen Landen herrlich ist!
02. 2a. Jesus ging mit seinen Jüngern über den Bach Kidron / 2b. Jesum von Nazareth / 2c. Jesus spricht zu ihnen "Ich bin's" / 2d. Jesum von Nazareth / 2e. Jesus antwortete: Ich hab's euch gesagt, daß ich's sei
03. 3. O große Lieb' o Lieb' ohn alle Maße
04. 4a. Auf daß das Wort erfüllet würde
05. 5. Dein Will' gescheh', Herr Gott, zugleich
06. 6. Die Schar aber und der Oberhauptmann
07. 7. Von den Stricken meiner Sünden
08. 8. Simon Petrus aber folgete Jesu nach
09. 9. Ich folge dir gleichfalls mit freudigen Schritten
10. 10. Derselbige Jünger war dem Hohenpriester bekannt
11. 11. Wer hat dich so geschlagen
12. 12a. Und Hannas sandte ihn gebungen zu dem Hohenpriester Caiphas / 12b. Bist du nicht seiner Jünger einger? / 12c. Er leugnete aber
13. 13. Ach, mein Sinn, so willst du endlich hin
14. 14. Petrus, der nicht denkt zurück
CD2:
01. Part 2. 15. Christus, der uns selig macht
02. 16a. Da führeten sie Jesum von Caiphas vor das Richthaus / 16b. Wäre dieser nicht ein Übeltäter, wir hätten dir ihn nicht überantwortet / 16c. Da sprach Pilatus su ihnen "So nehmet" / 16d. Wir dürfen niemand töten / 16e. Auf daß erfüllet sürde das Wort Jesu
03. 17. Ach großer König, groß zu allen Zeiten
04. 18a. Da sprach Pilatus zu ihm "So bist du dennoch" / 18b. Nicht diesen, diesen nicht / 18c. Barrabas aber war ein Mörder
05. 19. Betrachte, meine Seel, mit ängstlichem Vergnügen
06. 20. Erwäge, wie sein blutgefärbter Rücken
07. 21a. Und die Kriegsknechte flochten eine Krone von Dornen / 21b. Sei gegrüßet, lieber Jüdenkönig! / 21c. Und gaben ihm Backenstreiche / 21d. Kreuzige, kreuzige! / 21e. Pilatus sprach zu ihnen "Nehmet ihr ihn hin" / 21f. Wir haben ein Gesetz, und nach dem Gesetz soll
08. 22. Durch dein Gefängnis, Gottes Sohn muß uns die Freiheit kommen
09. 23a. Die Juden aber schrien / 23b. Lässest du diesen los, so bist du des Kaisers Freund nicht / 23c. Da Pilatus da Wort hörete, führete er Jesum heraus / 23d. Weg, weg mit dem, kreuzige ihn! / 23e. Spricht Pilatus zu ihnen "Soll ich euren König" / 23f. Wir haben kei
10. 24. Eilt, ihr angefocht'nen Seelen
11. Part 2. 25a. Allda kreuzigten sie ihn / 25b. Schreibe nicht: der Jüden König / 25c. Pilatus antwortet "Wis ich geschrieben"
12. 26. In meines Herzens Grunde
13. 27a. Die Kriegsknechte aber, da sie Jesum gekreuziget hatten, nahmen seine Kleider / 27b. Lasset uns den nicht zerteilen / 27c. Auf daß erfüllet würde die Schrift
14. 28. Er nahm alles wohl in acht
15. 29. Und von Stund an nahm sie der Jünger zu sich
16. 30. Es ist vollbracht
17. 31. Und neiget das Haupt und verschied
18. 32. Mein teurer Heiland
19. 33. Und sie da, der Vorhang im Tempel zerriß in zwei Stück
20. 34. Mein Herz, in dem die ganze Welt
21. 35. Serfließe, mein Herze
22. 36. Die Jüden aber, dieweil es der Rüsttag war
23. 37. O hilf, Christe, Gottes Sohn
24. 38. Darnach bat Pilatum Joseph von Arimathia
25. 39. Ruht wohl, ihr heiligen Gebeine
26. 40. Ach Herr, lass dein lieb. Engelein


Exact Audio Copy V1.3 from 2. September 2016

EAC extraction logfile from 27. March 2019, 17:44

Jeanette Kohn, Mikael Bellini, Mikael Stenbaek, Lars Johansson Brissman, Hakan Ekenas; Gary Graden / Bach - St. John Passion (Disc 1)

Used drive : ATAPI iHAS124 F Adapter: 1 ID: 0

Read mode : Secure
Utilize accurate stream : Yes
Defeat audio cache : Yes
Make use of C2 pointers : No

Read offset correction : 6
Overread into Lead-In and Lead-Out : No
Fill up missing offset samples with silence : Yes
Delete leading and trailing silent blocks : No
Null samples used in CRC calculations : Yes
Used interface : Native Win32 interface for Win NT & 2000

Used output format : User Defined Encoder
Selected bitrate : 1024 kBit/s
Quality : High
Add ID3 tag : No
Command line compressor : C:\Program Files (x86)\Exact Audio Copy\FLAC\FLAC.EXE
Additional command line options : -6 -V -T "ARTIST=%artist%" -T "TITLE=%title%" -T "ALBUM=%albumtitle%" -T "DATE=%year%" -T "TRACKNUMBER=%tracknr%" -T "GENRE=%genre%" -T "COMMENT=%comment%" -T "BAND=%albuminterpret%" -T "ALBUMARTIST=%albuminterpret%" -T "COMPOSER=%composer%" %haslyrics%–tag-from-file=LYRICS="%lyricsfile%"%haslyrics% -T "DISCNUMBER=%cdnumber%" -T "TOTALDISCS=%totalcds%" -T "TOTALTRACKS=%numtracks%" %hascover%–picture="%coverfile%"%hascover% %source% -o %dest%


TOC of the extracted CD

Track | Start | Length | Start sector | End sector
––––––––––––––––––––––––––––-
1 | 0:00.00 | 9:35.42 | 0 | 43166
2 | 9:35.42 | 2:14.08 | 43167 | 53224
3 | 11:49.50 | 0:41.35 | 53225 | 56334
4 | 12:31.10 | 1:03.31 | 56335 | 61090
5 | 13:34.41 | 0:49.21 | 61091 | 64786
6 | 14:23.62 | 0:43.40 | 64787 | 68051
7 | 15:07.27 | 4:58.39 | 68052 | 90440
8 | 20:05.66 | 0:12.70 | 90441 | 91410
9 | 20:18.61 | 3:43.44 | 91411 | 108179
10 | 24:02.30 | 2:52.20 | 108180 | 121099
11 | 26:54.50 | 1:27.39 | 121100 | 127663
12 | 28:22.14 | 2:07.67 | 127664 | 137255
13 | 30:30.06 | 2:16.52 | 137256 | 147507
14 | 32:46.58 | 1:10.28 | 147508 | 152785


Range status and errors

Selected range

Filename C:\EACRip\00 - EASTER\Bach - St. John Passion (REbaroque, Gary Graden) (2013)\CD1\Bach - St. John Passion (Disc 1) - REbaroque, Gary Graden.wav

Peak level 95.8 %
Extraction speed 7.6 X
Range quality 99.9 %
Test CRC E297585B
Copy CRC E297585B
Copy OK

No errors occurred


AccurateRip summary

Track 1 not present in database
Track 2 not present in database
Track 3 not present in database
Track 4 not present in database
Track 5 not present in database
Track 6 not present in database
Track 7 not present in database
Track 8 not present in database
Track 9 not present in database
Track 10 not present in database
Track 11 not present in database
Track 12 not present in database
Track 13 not present in database
Track 14 not present in database

None of the tracks are present in the AccurateRip database

End of status report

–– CUETools DB Plugin V2.1.6

[CTDB TOCID: ltl7QDnc045KzRUzaLEy1fHl0aY-] found
Submit result: ltl7QDnc045KzRUzaLEy1fHl0aY- has been confirmed
Track | CTDB Status
1 | (2/2) Accurately ripped
2 | (2/2) Accurately ripped
3 | (2/2) Accurately ripped
4 | (2/2) Accurately ripped
5 | (2/2) Accurately ripped
6 | (2/2) Accurately ripped
7 | (2/2) Accurately ripped
8 | (2/2) Accurately ripped
9 | (2/2) Accurately ripped
10 | (2/2) Accurately ripped
11 | (2/2) Accurately ripped
12 | (2/2) Accurately ripped
13 | (2/2) Accurately ripped
14 | (2/2) Accurately ripped


==== Log checksum BD4743371EA8B95435703E976E816A213470CCE6026B037D074776FA75B28D4D ====


Exact Audio Copy V1.3 from 2. September 2016

EAC extraction logfile from 27. March 2019, 18:59

Jeanette Kohn, Mikael Bellini, Mikael Stenbaek, Lars Johansson Brissman, Hakan Ekenas; Gary Graden / Bach - St. John Passion (Disc 2)

Used drive : ATAPI iHAS124 F Adapter: 1 ID: 0

Read mode : Secure
Utilize accurate stream : Yes
Defeat audio cache : Yes
Make use of C2 pointers : No

Read offset correction : 6
Overread into Lead-In and Lead-Out : No
Fill up missing offset samples with silence : Yes
Delete leading and trailing silent blocks : No
Null samples used in CRC calculations : Yes
Used interface : Native Win32 interface for Win NT & 2000

Used output format : User Defined Encoder
Selected bitrate : 1024 kBit/s
Quality : High
Add ID3 tag : No
Command line compressor : C:\Program Files (x86)\Exact Audio Copy\FLAC\FLAC.EXE
Additional command line options : -6 -V -T "ARTIST=%artist%" -T "TITLE=%title%" -T "ALBUM=%albumtitle%" -T "DATE=%year%" -T "TRACKNUMBER=%tracknr%" -T "GENRE=%genre%" -T "COMMENT=%comment%" -T "BAND=%albuminterpret%" -T "ALBUMARTIST=%albuminterpret%" -T "COMPOSER=%composer%" %haslyrics%–tag-from-file=LYRICS="%lyricsfile%"%haslyrics% -T "DISCNUMBER=%cdnumber%" -T "TOTALDISCS=%totalcds%" -T "TOTALTRACKS=%numtracks%" %hascover%–picture="%coverfile%"%hascover% %source% -o %dest%


TOC of the extracted CD

Track | Start | Length | Start sector | End sector
––––––––––––––––––––––––––––-
1 | 0:00.00 | 1:22.60 | 0 | 6209
2 | 1:22.60 | 3:55.18 | 6210 | 23852
3 | 5:18.03 | 1:25.45 | 23853 | 30272
4 | 6:43.48 | 1:57.20 | 30273 | 39067
5 | 8:40.68 | 2:33.31 | 39068 | 50573
6 | 11:14.24 | 6:52.19 | 50574 | 81492
7 | 18:06.43 | 5:26.59 | 81493 | 106001
8 | 23:33.27 | 0:53.35 | 106002 | 110011
9 | 24:26.62 | 3:51.60 | 110012 | 127396
10 | 28:18.47 | 3:49.07 | 127397 | 144578
11 | 32:07.54 | 2:06.01 | 144579 | 154029
12 | 34:13.55 | 0:53.55 | 154030 | 158059
13 | 35:07.35 | 3:39.34 | 158060 | 174518
14 | 38:46.69 | 0:59.73 | 174519 | 179016
15 | 39:46.67 | 1:24.64 | 179017 | 185380
16 | 41:11.56 | 5:17.24 | 185381 | 209179
17 | 46:29.05 | 0:23.35 | 209180 | 210939
18 | 46:52.40 | 3:58.10 | 210940 | 228799
19 | 50:50.50 | 0:25.25 | 228800 | 230699
20 | 51:16.00 | 0:50.06 | 230700 | 234455
21 | 52:06.06 | 6:33.32 | 234456 | 263962
22 | 58:39.38 | 2:03.47 | 263963 | 273234
23 | 60:43.10 | 0:58.11 | 273235 | 277595
24 | 61:41.21 | 2:03.40 | 277596 | 286860
25 | 63:44.61 | 6:35.73 | 286861 | 316558
26 | 70:20.59 | 1:49.48 | 316559 | 324781


Range status and errors

Selected range

Filename C:\EACRip\00 - EASTER\Bach - St. John Passion (REbaroque, Gary Graden) (2012)\CD2\Bach - St. John Passion (Disc 2) - REbaroque, Gary Graden.wav

Peak level 95.8 %
Extraction speed 9.2 X
Range quality 100.0 %
Test CRC 3E1C65EF
Copy CRC 3E1C65EF
Copy OK

No errors occurred


AccurateRip summary

Track 1 not present in database
Track 2 not present in database
Track 3 not present in database
Track 4 not present in database
Track 5 not present in database
Track 6 not present in database
Track 7 not present in database
Track 8 not present in database
Track 9 not present in database
Track 10 not present in database
Track 11 not present in database
Track 12 not present in database
Track 13 not present in database
Track 14 not present in database
Track 15 not present in database
Track 16 not present in database
Track 17 not present in database
Track 18 not present in database
Track 19 not present in database
Track 20 not present in database
Track 21 not present in database
Track 22 not present in database
Track 23 not present in database
Track 24 not present in database
Track 25 not present in database
Track 26 not present in database

None of the tracks are present in the AccurateRip database

End of status report

–– CUETools DB Plugin V2.1.6

[CTDB TOCID: oGLOkV1bi9ZpnBRFrChA0MDCLb4-] found
Submit result: oGLOkV1bi9ZpnBRFrChA0MDCLb4- has been confirmed
Track | CTDB Status
1 | (1/1) Accurately ripped
2 | (1/1) Accurately ripped
3 | (1/1) Accurately ripped
4 | (1/1) Accurately ripped
5 | (1/1) Accurately ripped
6 | (1/1) Accurately ripped
7 | (1/1) Accurately ripped
8 | (1/1) Accurately ripped
9 | (1/1) Accurately ripped
10 | (1/1) Accurately ripped
11 | (1/1) Accurately ripped
12 | (1/1) Accurately ripped
13 | (1/1) Accurately ripped
14 | (1/1) Accurately ripped
15 | (1/1) Accurately ripped
16 | (1/1) Accurately ripped
17 | (1/1) Accurately ripped
18 | (1/1) Accurately ripped
19 | (1/1) Accurately ripped
20 | (1/1) Accurately ripped
21 | (1/1) Accurately ripped
22 | (1/1) Accurately ripped
23 | (1/1) Accurately ripped
24 | (1/1) Accurately ripped
25 | (1/1) Accurately ripped
26 | (1/1) Accurately ripped


==== Log checksum 9DDB8CA888735B7F70A2BFCDAD151BF8A669ABF6572C1D35024FD09CEFB17DA9 ====

Gary Graden, REbaroque, S:t Jacobs Chamber Choir - Bach: St John Passion (2012)

Thanks to the original releaser