Subcategories
Tags
Language
Tags

Gary Thomas - Exile's Gate (1993) {JMT}

Posted By: tiburon
Gary Thomas - Exile's Gate (1993) {JMT}

Gary Thomas - Exile's Gate (1993) {JMT}
X Lossless Decoder | FLAC tracks | Cue+Log+M3U | Full Scans 300dpi | 348MB + 5% Recovery
MP3 CBR 320 Kbps | 131MB + 5% Recovery
Genre: Post-Bop, Fusion, M-Base

As a leader, saxophonist and composer Gary Thomas is wildly ambitious. Throughout the 1980s and into the '90s, Thomas experimented with everything from free jazz and funk to heavy metal and hip-hop. Exile's Gate is another such exercise. There are two distinct bands accompanying him here. One is made up of Thomas on tenor with drummer Jack DeJohnette and guitarist Paul Bollenback with organist Tim Murphy and bassist Ed Howard. The other features the latter two musicians, Marvin Sewell on guitar and drummer Terri Lyne Carrington. The first band plays Thomas' free-spirited and aggressive originals while the second plays standards for the most part. Only Thomas would think of putting the two approaches together on one record on alternate cuts. The pace is set by the title cut that opens the set, a freewheeling, menacing journey into overdriven counterpoint, and spirited interplay between Bollenbeck and the saxophonist utilizing hard rock tropes with DeJohnette traveling from one end of the color spectrum to the other. As such, hearing the standards, which are much more finessed and restrained; they feel forced in comparison. "Kulture Bandits," with its accent on funky backbeats and knotty melody lines that borrow a bit from the fakebook of Ronald Shannon Jackson & the Decoding Society and Soft Machine. These are the cuts that point in new directions, toward a new kind of street jazz, one anchored in gritty yet focused improvisation. And while the standards here such as "Like Someone in Love," and "Night and Day," are played ably enough and with some real Thomas individualism; they don't contain the same kind of visionary focus or inspiration. For fans of Thomas' work with standards, the 1992 album Till We Have Faces is a better bet.
Track List
1. Exile's Gate 9:26
2. Like Someone In Love 9:01
3. Kulture Bandits 7:19
4. Blues On The Corner 8:00
5. Night And Day 5:46
6. No Mercy Rule 8:20
7. A Brilliant Madness 8:10

musicians
Gary Thomas - tenor saxophone
Jack DeJohnette - drums on 1, 4, 7
Charles Covington - organ on 1, 4, 7
Paul Bollenback - guitar on 1, 4, 7
Tim Murphy - organ on 2, 3, 5, 6
Marvin Sewell - guitar on 2, 3, 5, 6
Ed Howard - bass on 2, 3, 5, 6
Terri Lyne Carrington - drums on 2, 3, 5, 6
Steve Moss - percussion on 6

Produced by Stefan F. Winter


X Lossless Decoder version 20100711 (120.5)

XLD extraction logfile from 2010-07-30 14:23:45 +0400

Gary Thomas / Exile's Gate

Used drive : HL-DT-ST DVDRW GS23N (revision SB00)

Use cdparanoia mode : YES (CDParanoia III 10.2 engine)
Disable audio cache : OK for the drive with cache less than 2750KB
Make use of C2 pointers : NO
Read offset correction : 667
Max retry count : 10
Gap status : Analyzed, Appended

TOC of the extracted CD
Track | Start | Length | Start sector | End sector
––––––––––––––––––––––––––––-
1 | 00:00:00 | 09:26:02 | 0 | 42451
2 | 09:26:02 | 09:01:60 | 42452 | 83086
3 | 18:27:62 | 07:19:70 | 83087 | 116081
4 | 25:47:57 | 07:59:73 | 116082 | 152079
5 | 33:47:55 | 05:46:72 | 152080 | 178101
6 | 39:34:52 | 08:21:00 | 178102 | 215676
7 | 47:55:52 | 08:10:45 | 215677 | 252471

Track 01
Filename : /Users/olegbelov/Downloads/Gary Thomas - Exile's Gate (1993)/01 Gary Thomas - Exile's Gate.flac

Pre-gap length : 00:02:00

CRC32 hash (test run) : C56B8DFA
CRC32 hash : C56B8DFA
CRC32 hash (skip zero) : 2D8A58A1
AccurateRip signature : AD2FFCC5
->Rip may not be accurate.
Statistics
Read error : 0
Skipped (treated as error) : 0
Edge jitter error (maybe fixed) : 0
Atom jitter error (maybe fixed) : 0
Drift error (maybe fixed) : 0
Dropped bytes error (maybe fixed) : 0
Duplicated bytes error (maybe fixed) : 0
Inconsistency in error sectors : 0

Track 02
Filename : /Users/olegbelov/Downloads/Gary Thomas - Exile's Gate (1993)/02 Gary Thomas - Like Someone In Love.flac

CRC32 hash (test run) : 61175AC7
CRC32 hash : 61175AC7
CRC32 hash (skip zero) : E95E775B
AccurateRip signature : 9380357A
->Rip may not be accurate.
Statistics
Read error : 0
Skipped (treated as error) : 0
Edge jitter error (maybe fixed) : 0
Atom jitter error (maybe fixed) : 0
Drift error (maybe fixed) : 0
Dropped bytes error (maybe fixed) : 0
Duplicated bytes error (maybe fixed) : 0
Inconsistency in error sectors : 0

Track 03
Filename : /Users/olegbelov/Downloads/Gary Thomas - Exile's Gate (1993)/03 Gary Thomas - Kulture Bandits.flac

CRC32 hash (test run) : D2314E8F
CRC32 hash : D2314E8F
CRC32 hash (skip zero) : 907CAAF1
AccurateRip signature : 74882B38
->Rip may not be accurate.
Statistics
Read error : 0
Skipped (treated as error) : 0
Edge jitter error (maybe fixed) : 0
Atom jitter error (maybe fixed) : 0
Drift error (maybe fixed) : 0
Dropped bytes error (maybe fixed) : 0
Duplicated bytes error (maybe fixed) : 0
Inconsistency in error sectors : 0

Track 04
Filename : /Users/olegbelov/Downloads/Gary Thomas - Exile's Gate (1993)/04 Gary Thomas - Blues On The Corner.flac

CRC32 hash (test run) : EAC4DE55
CRC32 hash : EAC4DE55
CRC32 hash (skip zero) : 12840A4E
AccurateRip signature : B597AE51
->Rip may not be accurate.
Statistics
Read error : 0
Skipped (treated as error) : 0
Edge jitter error (maybe fixed) : 0
Atom jitter error (maybe fixed) : 0
Drift error (maybe fixed) : 0
Dropped bytes error (maybe fixed) : 0
Duplicated bytes error (maybe fixed) : 0
Inconsistency in error sectors : 0

Track 05
Filename : /Users/olegbelov/Downloads/Gary Thomas - Exile's Gate (1993)/05 Gary Thomas - Night And Day.flac

CRC32 hash (test run) : A0559983
CRC32 hash : A0559983
CRC32 hash (skip zero) : 212CD7ED
AccurateRip signature : A0467DFC
->Rip may not be accurate.
Statistics
Read error : 0
Skipped (treated as error) : 0
Edge jitter error (maybe fixed) : 0
Atom jitter error (maybe fixed) : 0
Drift error (maybe fixed) : 0
Dropped bytes error (maybe fixed) : 0
Duplicated bytes error (maybe fixed) : 0
Inconsistency in error sectors : 0

Track 06
Filename : /Users/olegbelov/Downloads/Gary Thomas - Exile's Gate (1993)/06 Gary Thomas - No Mercy Rule.flac

CRC32 hash (test run) : D6B5AEE0
CRC32 hash : D6B5AEE0
CRC32 hash (skip zero) : 9A7985A9
AccurateRip signature : C97C83E3
->Rip may not be accurate.
Statistics
Read error : 0
Skipped (treated as error) : 0
Edge jitter error (maybe fixed) : 0
Atom jitter error (maybe fixed) : 0
Drift error (maybe fixed) : 0
Dropped bytes error (maybe fixed) : 0
Duplicated bytes error (maybe fixed) : 0
Inconsistency in error sectors : 0

Track 07
Filename : /Users/olegbelov/Downloads/Gary Thomas - Exile's Gate (1993)/07 Gary Thomas - A Brilliant Madness.flac

CRC32 hash (test run) : C63613FC
CRC32 hash : C63613FC
CRC32 hash (skip zero) : 9176979F
AccurateRip signature : 6BEC69A0
->Rip may not be accurate.
Statistics
Read error : 0
Skipped (treated as error) : 0
Edge jitter error (maybe fixed) : 0
Atom jitter error (maybe fixed) : 0
Drift error (maybe fixed) : 0
Dropped bytes error (maybe fixed) : 0
Duplicated bytes error (maybe fixed) : 0
Inconsistency in error sectors : 0

Some inconsistencies found

End of status report


foobar2000 1.3.13 / Dynamic Range Meter 1.1.1
log date: 2018-04-19 23:39:40

––––––––––––––––––––––––––––––––––––––––
Analyzed: Gary Thomas / Exile's Gate
––––––––––––––––––––––––––––––––––––––––

DR Peak RMS Duration Track
––––––––––––––––––––––––––––––––––––––––
DR13 0.00 dB -15.69 dB 9:26 01-Exile's Gate
DR14 -1.65 dB -18.76 dB 9:02 02-Like Someone In Love
DR14 -1.61 dB -17.73 dB 7:20 03-Kulture Bandits
DR13 0.00 dB -16.05 dB 8:00 04-Blues On The Corner
DR13 -1.61 dB -17.19 dB 5:47 05-Night And Day
DR14 -0.20 dB -16.46 dB 8:21 06-No Mercy Rule
DR14 0.00 dB -16.07 dB 8:11 07-A Brilliant Madness
––––––––––––––––––––––––––––––––––––––––

Number of tracks: 7
Official DR value: DR13

Samplerate: 44100 Hz
Channels: 2
Bits per sample: 16
Bitrate: 956 kbps
Codec: FLAC
================================================================================

Gary Thomas - Exile's Gate (1993) {JMT}


Thanks to the original ripper