Subcategories

Geezer - Black Science (1997) {Japan 1st Press}

Posted By: popsakov
Geezer - Black Science (1997) {Japan 1st Press}

Geezer - Black Science (1997) {Japan 1st Press}
EAC Rip | FLAC (Img) + Cue + Log ~ 462 Mb | MP3 CBR320 ~ 143 Mb
Full Scans ~ 94 Mb | RAR 5% Recovery
Heavy Metal | Victor #VICP-60114

Geezer Butler was incredibly busy in 1997. When he wasn't reunited with Ozzy Osbourne for a Black Sabbath tour, the longtime Sabbath bassist was fronting his own band, GZR – a thrash metal unit that doesn't hesitate to be brutally intense on Black Science. It's crystal clear that when Butler recorded this superb CD, the last thing on his mind was trying to emulate Sabbath. In fact, the band's sound is closer to Slayer than Sabbath, and the bonecrushing, ultra-heavy album is best described as thrash with elements of alternative rock and industrial noise. From "Man in a Suitcase" to "Among the Cybermen" to "Trinity Row," Butler and colleagues Clark Brown (a passionate vocalist who has learned a thing or two from Slayer's Tom Araya), Pedro Howse (guitar) and Deen Castronovo (drums) never fail to sound evil and menacing. Black Science demonstrated that almost 30 years after Sabbath's formation, Butler was still willing to take chances.

~ Alex Henderson, All Music

***************

Geezer - Black Science (1997) {Japan 1st Press}

Geezer - Black Science (1997) {Japan 1st Press}

Track List:

01. Man In A Suitcase [04:10]
02. Box Of Six [03:55]
03. Mysterons [05:37]
04. Justified [04:06]
05. Department S [04:46]
06. Area Code 51 [04:49]
07. Has To Be [03:30]
08. Number 5 [05:05]
09. Among The Cybermen [04:44]
10. Unspeakable Elvis [03:48]
11. Xodiak [03:35]
12. Northern Wisdom [03:46]
13. Trinity Road [03:30]
14. Beach Skeleton [03:28]

Exact Audio Copy V1.1 from 23. June 2015

EAC extraction logfile from 9. July 2015, 13:50

Geezer / Black Science [Japan VICP-60114]

Used drive : _NEC DVD_RW ND-2500A Adapter: 4 ID: 0

Read mode : Secure
Utilize accurate stream : Yes
Defeat audio cache : Yes
Make use of C2 pointers : No

Read offset correction : 48
Overread into Lead-In and Lead-Out : No
Fill up missing offset samples with silence : Yes
Delete leading and trailing silent blocks : No
Null samples used in CRC calculations : Yes
Used interface : Installed external ASPI interface

Used output format : User Defined Encoder
Selected bitrate : 128 kBit/s
Quality : High
Add ID3 tag : No
Command line compressor : C:\Program Files (x86)\Exact Audio Copy\wavpack-4.60.1\wavpack.exe
Additional command line options : -hm -w "Year=%year%" -w "Genre=%genre%" %source% %dest%


TOC of the extracted CD

Track | Start | Length | Start sector | End sector
––––––––––––––––––––––––––––-
1 | 0:00.37 | 4:09.63 | 37 | 18774
2 | 4:10.25 | 3:54.20 | 18775 | 36344
3 | 8:04.45 | 5:36.15 | 36345 | 61559
4 | 13:40.60 | 4:05.47 | 61560 | 79981
5 | 17:46.32 | 4:45.60 | 79982 | 101416
6 | 22:32.17 | 4:48.43 | 101417 | 123059
7 | 27:20.60 | 3:29.20 | 123060 | 138754
8 | 30:50.05 | 5:04.02 | 138755 | 161556
9 | 35:54.07 | 4:43.70 | 161557 | 182851
10 | 40:38.02 | 3:47.68 | 182852 | 199944
11 | 44:25.70 | 3:34.22 | 199945 | 216016
12 | 48:00.17 | 3:45.35 | 216017 | 232926
13 | 51:45.52 | 3:29.03 | 232927 | 248604
14 | 55:14.55 | 3:27.45 | 248605 | 264174


Range status and errors

Selected range

Filename G:\Rips by Alder\Geezer - Black Science [Japan VICP-60114].wav

Peak level 99.4 %
Extraction speed 2.0 X
Range quality 99.9 %
Test CRC 9E6F0F69
Copy CRC 9E6F0F69
Copy OK

No errors occurred


AccurateRip summary

Track 1 accurately ripped (confidence 2) [0F8D0DEC] (AR v2)
Track 2 accurately ripped (confidence 2) [20D71290] (AR v2)
Track 3 accurately ripped (confidence 2) [CEEE817E] (AR v2)
Track 4 accurately ripped (confidence 2) [90A98503] (AR v2)
Track 5 accurately ripped (confidence 2) [A0341DE3] (AR v2)
Track 6 accurately ripped (confidence 2) [6726EE44] (AR v2)
Track 7 accurately ripped (confidence 2) [8FDFEEB7] (AR v2)
Track 8 accurately ripped (confidence 2) [D44AB654] (AR v2)
Track 9 accurately ripped (confidence 2) [DE8EEAB0] (AR v2)
Track 10 accurately ripped (confidence 2) [A4BED6F1] (AR v2)
Track 11 accurately ripped (confidence 2) [338B82F1] (AR v2)
Track 12 accurately ripped (confidence 2) [1BB40428] (AR v2)
Track 13 accurately ripped (confidence 2) [C999E2BD] (AR v2)
Track 14 accurately ripped (confidence 2) [776DA89A] (AR v2)

All tracks accurately ripped

End of status report

–– CUETools DB Plugin V2.1.6

[CTDB TOCID: nqNvvYfiqhQSgdcdou_8OBLcvtw-] found
Submit result: nqNvvYfiqhQSgdcdou_8OBLcvtw- has been confirmed
Track | CTDB Status
1 | (1/1) Accurately ripped
2 | (1/1) Accurately ripped
3 | (1/1) Accurately ripped
4 | (1/1) Accurately ripped
5 | (1/1) Accurately ripped
6 | (1/1) Accurately ripped
7 | (1/1) Accurately ripped
8 | (1/1) Accurately ripped
9 | (1/1) Accurately ripped
10 | (1/1) Accurately ripped
11 | (1/1) Accurately ripped
12 | (1/1) Accurately ripped
13 | (1/1) Accurately ripped
14 | (1/1) Accurately ripped

[CUETools log; Date: 24.04.2019 17:57:55; Version: 2.1.6]
Pregap length 00:00:37.
[CTDB TOCID: nqNvvYfiqhQSgdcdou_8OBLcvtw-] found.
Track | CTDB Status
1 | (16/16) Accurately ripped
2 | (16/16) Accurately ripped
3 | (16/16) Accurately ripped
4 | (16/16) Accurately ripped
5 | (16/16) Accurately ripped
6 | (16/16) Accurately ripped
7 | (16/16) Accurately ripped
8 | (16/16) Accurately ripped
9 | (16/16) Accurately ripped
10 | (16/16) Accurately ripped
11 | (16/16) Accurately ripped
12 | (16/16) Accurately ripped
13 | (16/16) Accurately ripped
14 | (16/16) Accurately ripped
[AccurateRip ID: 001f8659-014e713c-bb0dc20e] found.
Track [ CRC | V2 ] Status
01 [a228a36b|0f8d0dec] (0+2/2) Accurately ripped
02 [952e9d28|20d71290] (0+2/2) Accurately ripped
03 [3af4c5fc|ceee817e] (0+2/2) Accurately ripped
04 [4e6ecc85|90a98503] (0+2/2) Accurately ripped
05 [d55ea120|a0341de3] (0+2/2) Accurately ripped
06 [a0aa1493|6726ee44] (0+2/2) Accurately ripped
07 [96111f27|8fdfeeb7] (0+2/2) Accurately ripped
08 [3cc89431|d44ab654] (0+2/2) Accurately ripped
09 [dc666094|de8eeab0] (0+2/2) Accurately ripped
10 [16f0bbe4|a4bed6f1] (0+2/2) Accurately ripped
11 [176dacb6|338b82f1] (0+2/2) Accurately ripped
12 [34503b3c|1bb40428] (0+2/2) Accurately ripped
13 [402f74d9|c999e2bd] (0+2/2) Accurately ripped
14 [59a894b4|776da89a] (0+2/2) Accurately ripped

Track Peak [ CRC32 ] [W/O NULL] [ LOG ]
– 99,4 [9E6F0F69] [6FBC23A5] CRC32
01 99,4 [1E023A27] [9C743010]
02 99,4 [D12A5AB1] [A4824AA4]
03 99,4 [8FD9233E] [F281BB8F]
04 99,4 [C38C4317] [FF6B6D40]
05 99,4 [A90BB2E6] [7C5FB3C3]
06 99,4 [5391DB11] [57F69403]
07 99,4 [FFBFD020] [50134A44]
08 99,4 [B4FC1380] [CBF3DA15]
09 99,4 [3CAC2083] [8AAC30F0]
10 99,4 [A38B5A4E] [E58C023E]
11 99,4 [1DA0C5EB] [C8EA886C]
12 99,4 [2EC20BBE] [B009CE95]
13 99,4 [58770A5A] [B2EDE2C2]
14 83,1 [7FFA5EF5] [2C394DD4]

Geezer - Black Science (1997) {Japan 1st Press}

All thanks go to Alder

>>> My Blog <<<

Download from icerbox.com: