Subcategories

Gene Clark - No Other (1974) [2019, Deluxe Box Set]

Posted By: v3122
Gene Clark - No Other (1974) [2019, Deluxe Box Set]

Gene Clark - No Other (1974)
EAC | Flac(Image) + Cue + Log & MP3 CBR 320Kbps
3CD | Village Records / 4AD Records, 4AD0071MXX | ~ 849 or 369 Mb | Artwork(png) -> 1.48 Gb
BLu-ray: MPEG-4 AVC 1080p, 23,976 fps, 16:9, High Profile 4.1
LPCM Audio 2.0, 96 kHz, 4608 kbps, 24-bit
Rock / Blues Rock / Classic Rock

Gene Clark’s 1974 masterpiece gets the reappraisal it’s long overdue. On the eve of what would have been American singer-songwriter and Byrds founding member Gene Clark’s 75th birthday comes the reissue of one of his finest works, No Other. Released in 1974 on Asylum Records, a year after the Byrds short- lived reunion, Gene reached for the stars with No Other; a psychedelic rock, folk, country and soul record that famously cost a small fortune to make. Although received warmly by critics, it flopped and was soon deleted, a failure Gene never came to terms with. However, as The New York Times wrote around the record’s 40th anniversary in 2014, “hindsight has burnished No Other, as it has redeemed other albums that went on to be reconstructed as rock repertory, like Big Star’s Third/Sister Lovers and Lou Reed’s Berlin,” with the album now being increasingly recognized as one of the greatest of its time, if not all time. 45 years on and recently remastered at Abbey Road, 4AD are giving No Other the reappraisal it deserves. The original eight track album is being released on both CD and LP, while a limited run double CD edition in a hardbound book cover is also coming which includes a bonus disc of alternate studio versions of each track plus a recording of “Train Leaves Here This Morning” (an Eagles hit in 1972, written by Gene and Eagles founding member Bernie Leadon). Excitingly, the deluxe boxset edition fans have been waiting decades for has also been lovingly curated. An extremely limited item, the box contains the LP, three SACDs (the original album in an authentic Japanese vinyl replica sleeve plus two more discs of session mixes), an exclusive 7”, a comprehensive Blu-Ray disc which includes HD versions of all tracks, a stunning 5.1 surround mix of the album, the original 1974 vinyl master and an exclusive documentary by Paul Kendall (the director responsible for the acclaimed 2013 film, The Byrd Who Flew Alone: The Triumphs and Tragedy of Gene Clark), and a hardbound 80 page book which features essays, extensive liner notes and previously unseen photos. “One of the greatest albums ever made. Initially celebrated for its obscurity, No Other is now celebrated for its magnificence. It was in every way a magnum opus: epic, sprawling, poetic, choral, rococo.”

~ amazon
Gene Clark - No Other (1974) [2019, Deluxe Box Set]

Gene Clark - No Other (1974):

Gene Clark - No Other (1974) [2019, Deluxe Box Set]

Tracklist CD1 - No Other (Remastered):

01 Life’s Greatest Fool
02 Silver Raven
03 No Other
04 Strength Of Strings
05 From A Silver Phial
06 Some Misunderstanding
07 The True One
08 Lady Of The North

Exact Audio Copy V1.3 from 2. September 2016

EAC extraction logfile from 17. November 2019, 18:16

Gene Clark / No Other (Remastered) SACD1

Used drive : PLEXTOR BD-R PX-B950SA Adapter: 1 ID: 1

Read mode : Secure
Utilize accurate stream : Yes
Defeat audio cache : Yes
Make use of C2 pointers : No

Read offset correction : 6
Overread into Lead-In and Lead-Out : No
Fill up missing offset samples with silence : Yes
Delete leading and trailing silent blocks : No
Null samples used in CRC calculations : Yes
Used interface : Native Win32 interface for Win NT & 2000

Used output format : Internal WAV Routines
Sample format : 44.100 Hz; 16 Bit; Stereo


TOC of the extracted CD

Track | Start | Length | Start sector | End sector
––––––––––––––––––––––––––––-
1 | 0:00.00 | 4:45.41 | 0 | 21415
2 | 4:45.41 | 4:53.66 | 21416 | 43456
3 | 9:39.32 | 5:08.55 | 43457 | 66611
4 | 14:48.12 | 6:31.63 | 66612 | 95999
5 | 21:20.00 | 3:41.07 | 96000 | 112581
6 | 25:01.07 | 8:09.55 | 112582 | 149311
7 | 33:10.62 | 3:59.05 | 149312 | 167241
8 | 37:09.67 | 6:06.58 | 167242 | 194749


Range status and errors

Selected range

Filename C:\Users\Alex\Desktop\ALLexxess\Gene Clarke\1974 No Other (6-Disc Box Set 4AD Records 2019)\SACD1 No Other (Remastered)\Gene Clark - No Other (Remastered) SACD1.wav

Peak level 100.0 %
Extraction speed 3.4 X
Range quality 100.0 %
Test CRC EFC50851
Copy CRC EFC50851
Copy OK

No errors occurred


AccurateRip summary

Track 1 not present in database
Track 2 not present in database
Track 3 not present in database
Track 4 not present in database
Track 5 not present in database
Track 6 not present in database
Track 7 not present in database
Track 8 not present in database

None of the tracks are present in the AccurateRip database

End of status report

–– CUETools DB Plugin V2.1.6

[CTDB TOCID: UyubOWF8a4cc7iXGiy4po_TRuUU-] found
Submit result: UyubOWF8a4cc7iXGiy4po_TRuUU- has been confirmed
Track | CTDB Status
1 | (10/10) Accurately ripped
2 | (10/10) Accurately ripped
3 | (10/10) Accurately ripped
4 | (10/10) Accurately ripped
5 | (10/10) Accurately ripped
6 | ( 3/10) Accurately ripped
7 | (10/10) Accurately ripped
8 | (10/10) Accurately ripped


==== Log checksum 8B43662BD8D1FFC7C637E3FEFE162F210B7F4A9C19388BB059F213E3DF1E7B59 ====


[CUETools log; Date: 19.11.2019 22:59:55; Version: 2.1.4]
[AccurateRip ID: 000cfdab-005772c6-650a2408] disk not present in database.

Track Peak [ CRC32 ] [W/O NULL] [ LOG ]
– 100,0 [EFC50851] [9FDBCED0] CRC32
01 98,8 [1030E8A8] [019C17D5]
02 94,0 [5FF76C94] [DD5FAC00]
03 98,2 [192413B6] [F7E4451C]
04 100,0 [0F5119A3] [F68C980F]
05 99,0 [7623BF09] [B1FCD8EF]
06 98,8 [55CE3374] [102FB160]
07 98,4 [70FA7BC0] [F20DF95A]
08 98,4 [12516E3F] [6C735B56]


Gene Clark - No Other (1974) [2019, Deluxe Box Set]

Tracklist CD2 - No Other (Sessions 1):

01 From A Silver Phial (Version 4)
02 Silver Raven (Version 2)
03 Some Misunderstanding (Version 3)
04 Life’s Greatest Fool (Version 2)
05 Train Leaves Here This Morning (Version 2)
06 Lady Of The North (Version 2)
07 The True One (Version 2)
08 Strength Of Strings (Version 2)
09 No Other (Version 2)

Exact Audio Copy V1.3 from 2. September 2016

EAC extraction logfile from 17. November 2019, 19:43

Gene Clark / No Other (Sessions 1) SACD2

Used drive : PLEXTOR BD-R PX-B950SA Adapter: 1 ID: 1

Read mode : Secure
Utilize accurate stream : Yes
Defeat audio cache : Yes
Make use of C2 pointers : No

Read offset correction : 6
Overread into Lead-In and Lead-Out : No
Fill up missing offset samples with silence : Yes
Delete leading and trailing silent blocks : No
Null samples used in CRC calculations : Yes
Used interface : Native Win32 interface for Win NT & 2000

Used output format : Internal WAV Routines
Sample format : 44.100 Hz; 16 Bit; Stereo


TOC of the extracted CD

Track | Start | Length | Start sector | End sector
––––––––––––––––––––––––––––-
1 | 0:00.00 | 3:51.20 | 0 | 17344
2 | 3:51.20 | 6:35.11 | 17345 | 46980
3 | 10:26.31 | 5:20.32 | 46981 | 71012
4 | 15:46.63 | 4:27.30 | 71013 | 91067
5 | 20:14.18 | 5:02.41 | 91068 | 113758
6 | 25:16.59 | 5:45.12 | 113759 | 139645
7 | 31:01.71 | 4:18.15 | 139646 | 159010
8 | 35:20.11 | 6:29.34 | 159011 | 188219
9 | 41:49.45 | 5:40.25 | 188220 | 213744


Range status and errors

Selected range

Filename C:\Users\Alex\Desktop\ALLexxess\Gene Clarke\1974 No Other (6-Disc Box Set 4AD Records 2019)\SACD2 No Other (Sessions 1)\Gene Clark - No Other (Sessions 1) SACD2.wav

Peak level 98.5 %
Extraction speed 3.5 X
Range quality 100.0 %
Test CRC 4B4343F0
Copy CRC 4B4343F0
Copy OK

No errors occurred


AccurateRip summary

Track 1 not present in database
Track 2 not present in database
Track 3 not present in database
Track 4 not present in database
Track 5 not present in database
Track 6 not present in database
Track 7 not present in database
Track 8 not present in database
Track 9 not present in database

None of the tracks are present in the AccurateRip database

End of status report

–– CUETools DB Plugin V2.1.6

[CTDB TOCID: 7zT41J16n_yhsrFsUyPjhvBX7tw-] found
Submit result: 7zT41J16n_yhsrFsUyPjhvBX7tw- has been confirmed
Track | CTDB Status
1 | (11/11) Accurately ripped
2 | (11/11) Accurately ripped
3 | (11/11) Accurately ripped
4 | (11/11) Accurately ripped
5 | (11/11) Accurately ripped
6 | (11/11) Accurately ripped
7 | (11/11) Accurately ripped
8 | (11/11) Accurately ripped
9 | (11/11) Accurately ripped


==== Log checksum 06483E0BA64717F384D4F74B748C193114EF204ADC38D8B97B83FC43E9CCB9E3 ====


[CUETools log; Date: 19.11.2019 23:02:07; Version: 2.1.4]
[AccurateRip ID: 000fe194-00752a9c-6a0b2109] disk not present in database.

Track Peak [ CRC32 ] [W/O NULL] [ LOG ]
– 98,5 [4B4343F0] [CCD9B58D] CRC32
01 97,3 [33CDB198] [A3AE84B1]
02 97,1 [7964A310] [59DC2A9C]
03 97,7 [D260C5A7] [D6AF58B5]
04 98,5 [A6567B82] [016FC2B0]
05 97,5 [87E20342] [FBC77326]
06 91,5 [1B3A07CB] [6794E72D]
07 97,1 [8EA1092B] [9DB7652D]
08 97,8 [5C6D15F9] [1B438BC0]
09 97,9 [DA8A9FA1] [DE95A804]


Gene Clark - No Other (1974) [2019, Deluxe Box Set]

Tracklist CD3 - No Other (Sessions 2):

01 From A Silver Phial (Version 1)
02 Life’s Greatest Fool (Version 1)
03 No Other (Version 1)
04 Lady Of The North (Version 1)
05 Some Misunderstanding (Version 1)
06 Silver Raven (Version 1)
07 Train Leaves Here This Morning (Version 1)
08 The True One (Version 1)
09 Strength Of Strings (Version 1)
10 Life’s Greatest Fool (Single Version)
11 Silver Raven (Single Edit)

Exact Audio Copy V1.3 from 2. September 2016

EAC extraction logfile from 17. November 2019, 19:04

Gene Clark / No Other (Sessions 2) SACD3

Used drive : PLEXTOR BD-R PX-B950SA Adapter: 1 ID: 1

Read mode : Secure
Utilize accurate stream : Yes
Defeat audio cache : Yes
Make use of C2 pointers : No

Read offset correction : 6
Overread into Lead-In and Lead-Out : No
Fill up missing offset samples with silence : Yes
Delete leading and trailing silent blocks : No
Null samples used in CRC calculations : Yes
Used interface : Native Win32 interface for Win NT & 2000

Used output format : Internal WAV Routines
Sample format : 44.100 Hz; 16 Bit; Stereo


TOC of the extracted CD

Track | Start | Length | Start sector | End sector
––––––––––––––––––––––––––––-
1 | 0:00.00 | 4:07.48 | 0 | 18572
2 | 4:07.48 | 4:10.05 | 18573 | 37327
3 | 8:17.53 | 5:15.28 | 37328 | 60980
4 | 13:33.06 | 5:53.40 | 60981 | 87495
5 | 19:26.46 | 5:12.09 | 87496 | 110904
6 | 24:38.55 | 4:59.38 | 110905 | 133367
7 | 29:38.18 | 5:45.74 | 133368 | 159316
8 | 35:24.17 | 4:41.70 | 159317 | 180461
9 | 40:06.12 | 6:22.73 | 180462 | 209184
10 | 46:29.10 | 3:10.14 | 209185 | 223448
11 | 49:39.24 | 3:20.60 | 223449 | 238508


Range status and errors

Selected range

Filename C:\Users\Alex\Desktop\ALLexxess\Gene Clarke\1974 No Other (6-Disc Box Set 4AD Records 2019)\SACD3 No Other (Sessions 2)\Gene Clark - No Other (Sessions 2) SACD3.wav

Peak level 97.2 %
Extraction speed 3.6 X
Range quality 100.0 %
Test CRC 3528A118
Copy CRC 3528A118
Copy OK

No errors occurred


AccurateRip summary

Track 1 not present in database
Track 2 not present in database
Track 3 not present in database
Track 4 not present in database
Track 5 not present in database
Track 6 not present in database
Track 7 not present in database
Track 8 not present in database
Track 9 not present in database
Track 10 not present in database
Track 11 not present in database

None of the tracks are present in the AccurateRip database

End of status report

–– CUETools DB Plugin V2.1.6

[CTDB TOCID: yLotuvCWwgD6lpgRB8M.UaM4G.o-] found
Submit result: yLotuvCWwgD6lpgRB8M.UaM4G.o- has been confirmed
Track | CTDB Status
1 | (3/3) Accurately ripped
2 | (3/3) Accurately ripped
3 | (3/3) Accurately ripped
4 | (3/3) Accurately ripped
5 | (3/3) Accurately ripped
6 | (3/3) Accurately ripped
7 | (3/3) Accurately ripped
8 | (3/3) Accurately ripped
9 | (3/3) Accurately ripped
10 | (3/3) Accurately ripped
11 | (3/3) Accurately ripped


==== Log checksum 622500BB1ED92DF5628B1A9C8BD1C4D6EDFD41173388FA8CCD053A3BB95192D9 ====


[CUETools log; Date: 19.11.2019 23:04:39; Version: 2.1.4]
[AccurateRip ID: 00164575-00c26624-a20c6c0b] disk not present in database.

Track Peak [ CRC32 ] [W/O NULL] [ LOG ]
– 97,2 [3528A118] [D674249D] CRC32
01 96,4 [AAACFDC1] [2C3F8E80]
02 96,6 [35612DBC] [A51CE541]
03 95,4 [5C8166EC] [1A140F40]
04 95,6 [9D95C146] [3D12DB4D]
05 95,2 [695742DE] [D5B56D3E]
06 95,5 [13F5F03C] [C3373740]
07 95,8 [4FCCFB62] [D14B941D]
08 95,2 [4C14ED81] [4C176617]
09 97,2 [1586BDA0] [4CF000DC]
10 96,6 [58CAD754] [A54192BA]
11 96,4 [8232BDE7] [CB5B306B]


Gene Clark - No Other (1974) [2019, Deluxe Box Set]

Tracklist BD:

No Other (Alternate Audio Versions)
● HD Abbey Road Remaster (24 bit/96 khz Stereo)
● HD 5.1 Surround Mix by Neil Wilkes & B.J. Cole (Opus Productions), Mastered by Neil Wilkes (24 bit/96 khz)
● HD 1974 Vinyl Master (24 bit/96 khz), Flat Transfer
● HD 2019 Stereo Remix by Neil Wilkes and Nick Ward (Opus Productions), Mastered by Neil Wilkes (24 bit/96 khz)
Film
● The Byrd Who Flew Alone: The Making of No Other by Paul Kendall

Disc Title: 4AD0071_BD
Disc Size: 21 885 851 523 bytes
Protection: AACS
BD-Java: Yes
BDInfo: 0.7.3.3

Notes:

BDINFO HOME:
Cinema Squid
http://www.cinemasquid.com/blu-ray/tools/bdinfo

INCLUDES FORUMS REPORT FOR:
AVS Forum Blu-ray Audio and Video Specifications Thread
http://www.avsforum.com/avs-vb/showthread.php?t=1155731

WARNING: Report is incomplete because: Scan has not been run.

********************
PLAYLIST: 00007.MPLS
********************

<–- BEGIN FORUMS PASTE –->
                                                                                                                Total   Video                                             
Title                                                           Codec   Length  Movie Size      Disc Size       Bitrate Bitrate Main Audio Track                          Secondary Audio Track
-----                                                           ------  ------- --------------  --------------  ------- ------- ------------------                        ---------------------
00007.MPLS                                                      AVC     0:52:58 0               21 885 851 523  0,00    0,00    LPCM 2.0 4608Kbps (96kHz/24-bit)          

DISC INFO:

Disc Title:     4AD0071_BD
Disc Size:      21 885 851 523 bytes
Protection:     AACS
BD-Java:        Yes
BDInfo:         0.7.3.3

PLAYLIST REPORT:

Name:                   00007.MPLS
Length:                 0:52:58.300 (h:m:s.ms)
Size:                   0 bytes
Total Bitrate:          0,00 Mbps

VIDEO:

Codec                   Bitrate             Description     
-----                   -------             -----------     
MPEG-4 AVC Video        0 kbps              1080p / 23,976 fps / 16:9 / High Profile 4.1

AUDIO:

Codec                           Language        Bitrate         Description     
-----                           --------        -------         -----------     
LPCM Audio                      English         4608 kbps       2.0 / 96 kHz / 4608 kbps / 24-bit

FILES:

Name            Time In         Length          Size            Total Bitrate   
----            -------         ------          ----            -------------   
00007.M2TS      0:00:00.000     0:52:58.300     0               0               

CHAPTERS:

Number          Time In         Length          Avg Video Rate  Max 1-Sec Rate  Max 1-Sec Time  Max 5-Sec Rate  Max 5-Sec Time  Max 10Sec Rate  Max 10Sec Time  Avg Frame Size  Max Frame Size  Max Frame Time  
------          -------         ------          --------------  --------------  --------------  --------------  --------------  --------------  --------------  --------------  --------------  --------------  
1               0:00:00.000     0:04:09.540     0 kbps          0 kbps          00:00:00.000    0 kbps          00:00:00.000    0 kbps          00:00:00.000    0 bytes         0 bytes         00:00:00.000    
2               0:04:09.540     0:04:10.166     0 kbps          0 kbps          00:00:00.000    0 kbps          00:00:00.000    0 kbps          00:00:00.000    0 bytes         0 bytes         00:00:00.000    
3               0:08:19.707     0:05:15.440     0 kbps          0 kbps          00:00:00.000    0 kbps          00:00:00.000    0 kbps          00:00:00.000    0 bytes         0 bytes         00:00:00.000    
4               0:13:35.147     0:05:53.436     0 kbps          0 kbps          00:00:00.000    0 kbps          00:00:00.000    0 kbps          00:00:00.000    0 bytes         0 bytes         00:00:00.000    
5               0:19:28.584     0:05:12.270     0 kbps          0 kbps          00:00:00.000    0 kbps          00:00:00.000    0 kbps          00:00:00.000    0 bytes         0 bytes         00:00:00.000    
6               0:24:40.854     0:04:59.549     0 kbps          0 kbps          00:00:00.000    0 kbps          00:00:00.000    0 kbps          00:00:00.000    0 bytes         0 bytes         00:00:00.000    
7               0:29:40.403     0:05:46.429     0 kbps          0 kbps          00:00:00.000    0 kbps          00:00:00.000    0 kbps          00:00:00.000    0 bytes         0 bytes         00:00:00.000    
8               0:35:26.833     0:04:41.406     0 kbps          0 kbps          00:00:00.000    0 kbps          00:00:00.000    0 kbps          00:00:00.000    0 bytes         0 bytes         00:00:00.000    
9               0:40:08.239     0:06:23.257     0 kbps          0 kbps          00:00:00.000    0 kbps          00:00:00.000    0 kbps          00:00:00.000    0 bytes         0 bytes         00:00:00.000    
10              0:46:31.497     0:03:09.230     0 kbps          0 kbps          00:00:00.000    0 kbps          00:00:00.000    0 kbps          00:00:00.000    0 bytes         0 bytes         00:00:00.000    
11              0:49:40.727     0:03:17.572     0 kbps          0 kbps          00:00:00.000    0 kbps          00:00:00.000    0 kbps          00:00:00.000    0 bytes         0 bytes         00:00:00.000    

STREAM DIAGNOSTICS:

File            PID             Type            Codec           Language                Seconds                 Bitrate                 Bytes           Packets         
----            ---             ----            -----           --------                --------------          --------------          -------------   -----           
00007.M2TS      4113 (0x1011)   0x1B            AVC                                     0,042                   0                       0               0               
00007.M2TS      4352 (0x1100)   0x80            LPCM            eng (English)           0,042                   0                       0               0               

<–– END FORUMS PASTE ––>

QUICK SUMMARY:

Disc Title: 4AD0071_BD
Disc Size: 21 885 851 523 bytes
Protection: AACS
BD-Java: Yes
Playlist: 00007.MPLS
Size: 0 bytes
Length: 0:52:58.300
Total Bitrate: 0,00 Mbps
Video: MPEG-4 AVC Video / 0 kbps / 1080p / 23,976 fps / 16:9 / High Profile 4.1
Audio: English / LPCM Audio / 2.0 / 96 kHz / 4608 kbps / 24-bit


********************
PLAYLIST: 00006.MPLS
********************

<–- BEGIN FORUMS PASTE –->
                                                                                                                Total   Video                                             
Title                                                           Codec   Length  Movie Size      Disc Size       Bitrate Bitrate Main Audio Track                          Secondary Audio Track
-----                                                           ------  ------- --------------  --------------  ------- ------- ------------------                        ---------------------
00006.MPLS                                                      AVC     0:47:34 0               21 885 851 523  0,00    0,00    LPCM 2.0 4608Kbps (96kHz/24-bit)          

DISC INFO:

Disc Title:     4AD0071_BD
Disc Size:      21 885 851 523 bytes
Protection:     AACS
BD-Java:        Yes
BDInfo:         0.7.3.3

PLAYLIST REPORT:

Name:                   00006.MPLS
Length:                 0:47:34.893 (h:m:s.ms)
Size:                   0 bytes
Total Bitrate:          0,00 Mbps

VIDEO:

Codec                   Bitrate             Description     
-----                   -------             -----------     
MPEG-4 AVC Video        0 kbps              1080p / 23,976 fps / 16:9 / High Profile 4.1

AUDIO:

Codec                           Language        Bitrate         Description     
-----                           --------        -------         -----------     
LPCM Audio                      English         4608 kbps       2.0 / 96 kHz / 4608 kbps / 24-bit

FILES:

Name            Time In         Length          Size            Total Bitrate   
----            -------         ------          ----            -------------   
00006.M2TS      0:00:00.000     0:47:34.893     0               0               

CHAPTERS:

Number          Time In         Length          Avg Video Rate  Max 1-Sec Rate  Max 1-Sec Time  Max 5-Sec Rate  Max 5-Sec Time  Max 10Sec Rate  Max 10Sec Time  Avg Frame Size  Max Frame Size  Max Frame Time  
------          -------         ------          --------------  --------------  --------------  --------------  --------------  --------------  --------------  --------------  --------------  --------------  
1               0:00:00.000     0:03:53.191     0 kbps          0 kbps          00:00:00.000    0 kbps          00:00:00.000    0 kbps          00:00:00.000    0 bytes         0 bytes         00:00:00.000    
2               0:03:53.191     0:06:35.186     0 kbps          0 kbps          00:00:00.000    0 kbps          00:00:00.000    0 kbps          00:00:00.000    0 bytes         0 bytes         00:00:00.000    
3               0:10:28.377     0:05:21.404     0 kbps          0 kbps          00:00:00.000    0 kbps          00:00:00.000    0 kbps          00:00:00.000    0 bytes         0 bytes         00:00:00.000    
4               0:15:49.782     0:04:27.433     0 kbps          0 kbps          00:00:00.000    0 kbps          00:00:00.000    0 kbps          00:00:00.000    0 bytes         0 bytes         00:00:00.000    
5               0:20:17.215     0:05:02.677     0 kbps          0 kbps          00:00:00.000    0 kbps          00:00:00.000    0 kbps          00:00:00.000    0 bytes         0 bytes         00:00:00.000    
6               0:25:19.893     0:05:45.219     0 kbps          0 kbps          00:00:00.000    0 kbps          00:00:00.000    0 kbps          00:00:00.000    0 bytes         0 bytes         00:00:00.000    
7               0:31:05.113     0:04:18.007     0 kbps          0 kbps          00:00:00.000    0 kbps          00:00:00.000    0 kbps          00:00:00.000    0 bytes         0 bytes         00:00:00.000    
8               0:35:23.121     0:06:29.430     0 kbps          0 kbps          00:00:00.000    0 kbps          00:00:00.000    0 kbps          00:00:00.000    0 bytes         0 bytes         00:00:00.000    
9               0:41:52.551     0:05:41.341     0 kbps          0 kbps          00:00:00.000    0 kbps          00:00:00.000    0 kbps          00:00:00.000    0 bytes         0 bytes         00:00:00.000    
10              0:47:33.892     0:00:01.000     0 kbps          0 kbps          00:00:00.000    0 kbps          00:00:00.000    0 kbps          00:00:00.000    0 bytes         0 bytes         00:00:00.000    

STREAM DIAGNOSTICS:

File            PID             Type            Codec           Language                Seconds                 Bitrate                 Bytes           Packets         
----            ---             ----            -----           --------                --------------          --------------          -------------   -----           
00006.M2TS      4113 (0x1011)   0x1B            AVC                                     0,042                   0                       0               0               
00006.M2TS      4352 (0x1100)   0x80            LPCM            eng (English)           0,042                   0                       0               0               

<–– END FORUMS PASTE ––>

QUICK SUMMARY:

Disc Title: 4AD0071_BD
Disc Size: 21 885 851 523 bytes
Protection: AACS
BD-Java: Yes
Playlist: 00006.MPLS
Size: 0 bytes
Length: 0:47:34.893
Total Bitrate: 0,00 Mbps
Video: MPEG-4 AVC Video / 0 kbps / 1080p / 23,976 fps / 16:9 / High Profile 4.1
Audio: English / LPCM Audio / 2.0 / 96 kHz / 4608 kbps / 24-bit


********************
PLAYLIST: 00005.MPLS
********************

<–- BEGIN FORUMS PASTE –->
                                                                                                                Total   Video                                             
Title                                                           Codec   Length  Movie Size      Disc Size       Bitrate Bitrate Main Audio Track                          Secondary Audio Track
-----                                                           ------  ------- --------------  --------------  ------- ------- ------------------                        ---------------------
00005.MPLS                                                      AVC     0:44:24 0               21 885 851 523  0,00    0,00    LPCM 2.0 4608Kbps (96kHz/24-bit)          DTS-HD Master 5.1 (96kHz/24-bit)

DISC INFO:

Disc Title:     4AD0071_BD
Disc Size:      21 885 851 523 bytes
Protection:     AACS
BD-Java:        Yes
BDInfo:         0.7.3.3

PLAYLIST REPORT:

Name:                   00005.MPLS
Length:                 0:44:24.286 (h:m:s.ms)
Size:                   0 bytes
Total Bitrate:          0,00 Mbps

VIDEO:

Codec                   Bitrate             Description     
-----                   -------             -----------     
MPEG-4 AVC Video        0 kbps              1080p / 23,976 fps / 16:9 / High Profile 4.1

AUDIO:

Codec                           Language        Bitrate         Description     
-----                           --------        -------         -----------     
LPCM Audio                      English         4608 kbps       2.0 / 96 kHz / 4608 kbps / 24-bit
DTS-HD Master Audio             English         0 kbps          5.1 / 96 kHz / 24-bit (DTS Core: 5.1 / 48 kHz / 1509 kbps / 24-bit)
LPCM Audio                      English         13824 kbps      5.1 / 96 kHz / 13824 kbps / 24-bit

FILES:

Name            Time In         Length          Size            Total Bitrate   
----            -------         ------          ----            -------------   
00005.M2TS      0:00:00.000     0:44:24.286     0               0               

CHAPTERS:

Number          Time In         Length          Avg Video Rate  Max 1-Sec Rate  Max 1-Sec Time  Max 5-Sec Rate  Max 5-Sec Time  Max 10Sec Rate  Max 10Sec Time  Avg Frame Size  Max Frame Size  Max Frame Time  
------          -------         ------          --------------  --------------  --------------  --------------  --------------  --------------  --------------  --------------  --------------  --------------  
1               0:00:00.000     0:04:47.870     0 kbps          0 kbps          00:00:00.000    0 kbps          00:00:00.000    0 kbps          00:00:00.000    0 bytes         0 bytes         00:00:00.000    
2               0:04:47.870     0:04:54.043     0 kbps          0 kbps          00:00:00.000    0 kbps          00:00:00.000    0 kbps          00:00:00.000    0 bytes         0 bytes         00:00:00.000    
3               0:09:41.914     0:05:19.569     0 kbps          0 kbps          00:00:00.000    0 kbps          00:00:00.000    0 kbps          00:00:00.000    0 bytes         0 bytes         00:00:00.000    
4               0:15:01.483     0:06:39.440     0 kbps          0 kbps          00:00:00.000    0 kbps          00:00:00.000    0 kbps          00:00:00.000    0 bytes         0 bytes         00:00:00.000    
5               0:21:40.924     0:03:44.724     0 kbps          0 kbps          00:00:00.000    0 kbps          00:00:00.000    0 kbps          00:00:00.000    0 bytes         0 bytes         00:00:00.000    
6               0:25:25.649     0:08:15.828     0 kbps          0 kbps          00:00:00.000    0 kbps          00:00:00.000    0 kbps          00:00:00.000    0 bytes         0 bytes         00:00:00.000    
7               0:33:41.477     0:04:29.018     0 kbps          0 kbps          00:00:00.000    0 kbps          00:00:00.000    0 kbps          00:00:00.000    0 bytes         0 bytes         00:00:00.000    
8               0:38:10.496     0:06:13.790     0 kbps          0 kbps          00:00:00.000    0 kbps          00:00:00.000    0 kbps          00:00:00.000    0 bytes         0 bytes         00:00:00.000    

STREAM DIAGNOSTICS:

File            PID             Type            Codec           Language                Seconds                 Bitrate                 Bytes           Packets         
----            ---             ----            -----           --------                --------------          --------------          -------------   -----           
00005.M2TS      4113 (0x1011)   0x1B            AVC                                     0,042                   0                       0               0               
00005.M2TS      4352 (0x1100)   0x80            LPCM            eng (English)           0,042                   0                       0               0               
00005.M2TS      4353 (0x1101)   0x86            DTS-HD MA       eng (English)           0,042                   0                       0               0               
00005.M2TS      4354 (0x1102)   0x80            LPCM            eng (English)           0,042                   0                       0               0               

<–– END FORUMS PASTE ––>

QUICK SUMMARY:

Disc Title: 4AD0071_BD
Disc Size: 21 885 851 523 bytes
Protection: AACS
BD-Java: Yes
Playlist: 00005.MPLS
Size: 0 bytes
Length: 0:44:24.286
Total Bitrate: 0,00 Mbps
Video: MPEG-4 AVC Video / 0 kbps / 1080p / 23,976 fps / 16:9 / High Profile 4.1
Audio: English / LPCM Audio / 2.0 / 96 kHz / 4608 kbps / 24-bit
Audio: English / DTS-HD Master Audio / 5.1 / 96 kHz / 24-bit (DTS Core: 5.1 / 48 kHz / 1509 kbps / 24-bit)
Audio: English / LPCM Audio / 5.1 / 96 kHz / 13824 kbps / 24-bit


********************
PLAYLIST: 00003.MPLS
********************

<–- BEGIN FORUMS PASTE –->
                                                                                                                Total   Video                                             
Title                                                           Codec   Length  Movie Size      Disc Size       Bitrate Bitrate Main Audio Track                          Secondary Audio Track
-----                                                           ------  ------- --------------  --------------  ------- ------- ------------------                        ---------------------
00003.MPLS                                                      AVC     0:43:19 0               21 885 851 523  0,00    0,00    LPCM 2.0 4608Kbps (96kHz/24-bit)          

DISC INFO:

Disc Title:     4AD0071_BD
Disc Size:      21 885 851 523 bytes
Protection:     AACS
BD-Java:        Yes
BDInfo:         0.7.3.3

PLAYLIST REPORT:

Name:                   00003.MPLS
Length:                 0:43:19.930 (h:m:s.ms)
Size:                   0 bytes
Total Bitrate:          0,00 Mbps

VIDEO:

Codec                   Bitrate             Description     
-----                   -------             -----------     
MPEG-4 AVC Video        0 kbps              1080p / 23,976 fps / 16:9 / High Profile 4.1

AUDIO:

Codec                           Language        Bitrate         Description     
-----                           --------        -------         -----------     
LPCM Audio                      English         4608 kbps       2.0 / 96 kHz / 4608 kbps / 24-bit

FILES:

Name            Time In         Length          Size            Total Bitrate   
----            -------         ------          ----            -------------   
00003.M2TS      0:00:00.000     0:43:19.930     0               0               

CHAPTERS:

Number          Time In         Length          Avg Video Rate  Max 1-Sec Rate  Max 1-Sec Time  Max 5-Sec Rate  Max 5-Sec Time  Max 10Sec Rate  Max 10Sec Time  Avg Frame Size  Max Frame Size  Max Frame Time  
------          -------         ------          --------------  --------------  --------------  --------------  --------------  --------------  --------------  --------------  --------------  --------------  
1               0:00:00.000     0:04:47.495     0 kbps          0 kbps          00:00:00.000    0 kbps          00:00:00.000    0 kbps          00:00:00.000    0 bytes         0 bytes         00:00:00.000    
2               0:04:47.495     0:04:53.876     0 kbps          0 kbps          00:00:00.000    0 kbps          00:00:00.000    0 kbps          00:00:00.000    0 bytes         0 bytes         00:00:00.000    
3               0:09:41.372     0:05:08.725     0 kbps          0 kbps          00:00:00.000    0 kbps          00:00:00.000    0 kbps          00:00:00.000    0 bytes         0 bytes         00:00:00.000    
4               0:14:50.097     0:06:31.808     0 kbps          0 kbps          00:00:00.000    0 kbps          00:00:00.000    0 kbps          00:00:00.000    0 bytes         0 bytes         00:00:00.000    
5               0:21:21.905     0:03:42.138     0 kbps          0 kbps          00:00:00.000    0 kbps          00:00:00.000    0 kbps          00:00:00.000    0 bytes         0 bytes         00:00:00.000    
6               0:25:04.044     0:08:10.740     0 kbps          0 kbps          00:00:00.000    0 kbps          00:00:00.000    0 kbps          00:00:00.000    0 bytes         0 bytes         00:00:00.000    
7               0:33:14.784     0:03:59.197     0 kbps          0 kbps          00:00:00.000    0 kbps          00:00:00.000    0 kbps          00:00:00.000    0 bytes         0 bytes         00:00:00.000    
8               0:37:13.981     0:06:05.948     0 kbps   			  		   	  			     	 			   		  	   		      		 			  	 			   		  	   		  		  			     	 			   		   	  		 		   			  				        0 kbps          00:00:00.000    0 kbps          00:00:00.000    0 kbps          00:00:00.000    0 bytes         0 bytes         00:00:00.000    

STREAM DIAGNOSTICS:

File            PID             Type            Codec           Language                Seconds                 Bitrate                 Bytes           Packets         
----            ---             ----            -----           --------                --------------          --------------          -------------   -----           
00003.M2TS      4113 (0x1011)   0x1B            AVC                                     0,042                   0                       0               0               
00003.M2TS      4352 (0x1100)   0x80            LPCM            eng (English)           0,042                   0                       0               0               

<–– END FORUMS PASTE ––>

QUICK SUMMARY:

Disc Title: 4AD0071_BD
Disc Size: 21 885 851 523 bytes
Protection: AACS
BD-Java: Yes
Playlist: 00003.MPLS
Size: 0 bytes
Length: 0:43:19.930
Total Bitrate: 0,00 Mbps
Video: MPEG-4 AVC Video / 0 kbps / 1080p / 23,976 fps / 16:9 / High Profile 4.1
Audio: English / LPCM Audio / 2.0 / 96 kHz / 4608 kbps / 24-bit


********************
PLAYLIST: 00004.MPLS
********************

<–- BEGIN FORUMS PASTE –->
                                                                                                                Total   Video                                             
Title                                                           Codec   Length  Movie Size      Disc Size       Bitrate Bitrate Main Audio Track                          Secondary Audio Track
-----                                                           ------  ------- --------------  --------------  ------- ------- ------------------                        ---------------------
00004.MPLS                                                      AVC     0:43:15 0               21 885 851 523  0,00    0,00    LPCM 2.0 4608Kbps (96kHz/24-bit)          

DISC INFO:

Disc Title:     4AD0071_BD
Disc Size:      21 885 851 523 bytes
Protection:     AACS
BD-Java:        Yes
BDInfo:         0.7.3.3

PLAYLIST REPORT:

Name:                   00004.MPLS
Length:                 0:43:15.301 (h:m:s.ms)
Size:                   0 bytes
Total Bitrate:          0,00 Mbps

VIDEO:

Codec                   Bitrate             Description     
-----                   -------             -----------     
MPEG-4 AVC Video        0 kbps              1080p / 23,976 fps / 16:9 / High Profile 4.1

AUDIO:

Codec                           Language        Bitrate         Description     
-----                           --------        -------         -----------     
LPCM Audio                      English         4608 kbps       2.0 / 96 kHz / 4608 kbps / 24-bit

FILES:

Name            Time In         Length          Size            Total Bitrate   
----            -------         ------          ----            -------------   
00004.M2TS      0:00:00.000     0:43:15.301     0               0               

CHAPTERS:

Number          Time In         Length          Avg Video Rate  Max 1-Sec Rate  Max 1-Sec Time  Max 5-Sec Rate  Max 5-Sec Time  Max 10Sec Rate  Max 10Sec Time  Avg Frame Size  Max Frame Size  Max Frame Time  
------          -------         ------          --------------  --------------  --------------  --------------  --------------  --------------  --------------  --------------  --------------  --------------  
1               0:00:00.000     0:04:47.662     0 kbps          0 kbps          00:00:00.000    0 kbps          00:00:00.000    0 kbps          00:00:00.000    0 bytes         0 bytes         00:00:00.000    
2               0:04:47.662     0:04:54.168     0 kbps          0 kbps          00:00:00.000    0 kbps          00:00:00.000    0 kbps          00:00:00.000    0 bytes         0 bytes         00:00:00.000    
3               0:09:41.831     0:05:08.391     0 kbps          0 kbps          00:00:00.000    0 kbps          00:00:00.000    0 kbps          00:00:00.000    0 bytes         0 bytes         00:00:00.000    
4               0:14:50.222     0:06:30.723     0 kbps          0 kbps          00:00:00.000    0 kbps          00:00:00.000    0 kbps          00:00:00.000    0 bytes         0 bytes         00:00:00.000    
5               0:21:20.946     0:03:41.554     0 kbps          0 kbps          00:00:00.000    0 kbps          00:00:00.000    0 kbps          00:00:00.000    0 bytes         0 bytes         00:00:00.000    
6               0:25:02.501     0:08:09.906     0 kbps          0 kbps          00:00:00.000    0 kbps          00:00:00.000    0 kbps          00:00:00.000    0 bytes         0 bytes         00:00:00.000    
7               0:33:12.407     0:03:59.113     0 kbps          0 kbps          00:00:00.000    0 kbps          00:00:00.000    0 kbps          00:00:00.000    0 bytes         0 bytes         00:00:00.000    
8               0:37:11.520     0:06:03.780     0 kbps          0 kbps          00:00:00.000    0 kbps          00:00:00.000    0 kbps          00:00:00.000    0 bytes         0 bytes         00:00:00.000    

STREAM DIAGNOSTICS:

File            PID             Type            Codec           Language                Seconds                 Bitrate                 Bytes           Packets         
----            ---             ----            -----           --------                --------------          --------------          -------------   -----           
00004.M2TS      4113 (0x1011)   0x1B            AVC                                     0,042                   0                       0               0               
00004.M2TS      4352 (0x1100)   0x80            LPCM            eng (English)           0,042                   0                       0               0               

<–– END FORUMS PASTE ––>

QUICK SUMMARY:

Disc Title: 4AD0071_BD
Disc Size: 21 885 851 523 bytes
Protection: AACS
BD-Java: Yes
Playlist: 00004.MPLS
Size: 0 bytes
Length: 0:43:15.301
Total Bitrate: 0,00 Mbps
Video: MPEG-4 AVC Video / 0 kbps / 1080p / 23,976 fps / 16:9 / High Profile 4.1
Audio: English / LPCM Audio / 2.0 / 96 kHz / 4608 kbps / 24-bit


********************
PLAYLIST: 00008.MPLS
********************

<–- BEGIN FORUMS PASTE –->
                                                                                                                Total   Video                                             
Title                                                           Codec   Length  Movie Size      Disc Size       Bitrate Bitrate Main Audio Track                          Secondary Audio Track
-----                                                           ------  ------- --------------  --------------  ------- ------- ------------------                        ---------------------
00008.MPLS                                                      AVC     0:33:18 0               21 885 851 523  0,00    0,00    LPCM 2.0 2304Kbps (48kHz/24-bit)          

DISC INFO:

Disc Title:     4AD0071_BD
Disc Size:      21 885 851 523 bytes
Protection:     AACS
BD-Java:        Yes
BDInfo:         0.7.3.3

PLAYLIST REPORT:

Name:                   00008.MPLS
Length:                 0:33:18.204 (h:m:s.ms)
Size:                   0 bytes
Total Bitrate:          0,00 Mbps

VIDEO:

Codec                   Bitrate             Description     
-----                   -------             -----------     
MPEG-4 AVC Video        0 kbps              1080p / 23,976 fps / 16:9 / High Profile 4.1

AUDIO:

Codec                           Language        Bitrate         Description     
-----                           --------        -------         -----------     
LPCM Audio                      English         2304 kbps       2.0 / 48 kHz / 2304 kbps / 24-bit

FILES:

Name            Time In         Length          Size            Total Bitrate   
----            -------         ------          ----            -------------   
00008.M2TS      0:00:00.000     0:33:18.204     0               0               

CHAPTERS:

Number          Time In         Length          Avg Video Rate  Max 1-Sec Rate  Max 1-Sec Time  Max 5-Sec Rate  Max 5-Sec Time  Max 10Sec Rate  Max 10Sec Time  Avg Frame Size  Max Frame Size  Max Frame Time  
------          -------         ------          --------------  --------------  --------------  --------------  --------------  --------------  --------------  --------------  --------------  --------------  
1               0:00:00.000     0:33:18.204     0 kbps          0 kbps          00:00:00.000    0 kbps          00:00:00.000    0 kbps          00:00:00.000    0 bytes         0 bytes         00:00:00.000    

STREAM DIAGNOSTICS:

File            PID             Type            Codec           Language                Seconds                 Bitrate                 Bytes           Packets         
----            ---             ----            -----           --------                --------------          --------------          -------------   -----           
00008.M2TS      4113 (0x1011)   0x1B            AVC                                     0,042                   0                       0               0               
00008.M2TS      4352 (0x1100)   0x80            LPCM            eng (English)           0,042                   0                       0               0               

<–– END FORUMS PASTE ––>

QUICK SUMMARY:

Disc Title: 4AD0071_BD
Disc Size: 21 885 851 523 bytes
Protection: AACS
BD-Java: Yes
Playlist: 00008.MPLS
Size: 0 bytes
Length: 0:33:18.204
Total Bitrate: 0,00 Mbps
Video: MPEG-4 AVC Video / 0 kbps / 1080p / 23,976 fps / 16:9 / High Profile 4.1
Audio: English / LPCM Audio / 2.0 / 48 kHz / 2304 kbps / 24-bit


********************
PLAYLIST: 00002.MPLS
********************

<–- BEGIN FORUMS PASTE –->
                                                                                                                Total   Video                                             
Title                                                           Codec   Length  Movie Size      Disc Size       Bitrate Bitrate Main Audio Track                          Secondary Audio Track
-----                                                           ------  ------- --------------  --------------  ------- ------- ------------------                        ---------------------
00002.MPLS                                                      AVC     0:01:10 0               21 885 851 523  0,00    0,00    LPCM 2.0 2304Kbps (48kHz/24-bit)          

DISC INFO:

Disc Title:     4AD0071_BD
Disc Size:      21 885 851 523 bytes
Protection:     AACS
BD-Java:        Yes
BDInfo:         0.7.3.3

PLAYLIST REPORT:

Name:                   00002.MPLS
Length:                 0:01:10.070 (h:m:s.ms)
Size:                   0 bytes
Total Bitrate:          0,00 Mbps

VIDEO:

Codec                   Bitrate             Description     
-----                   -------             -----------     
MPEG-4 AVC Video        0 kbps              1080p / 23,976 fps / 16:9 / High Profile 4.1

AUDIO:

Codec                           Language        Bitrate         Description     
-----                           --------        -------         -----------     
LPCM Audio                      English         2304 kbps       2.0 / 48 kHz / 2304 kbps / 24-bit

FILES:

Name            Time In         Length          Size            Total Bitrate   
----            -------         ------          ----            -------------   
00002.M2TS      0:00:00.000     0:01:10.070     0               0               

CHAPTERS:

Number          Time In         Length          Avg Video Rate  Max 1-Sec Rate  Max 1-Sec Time  Max 5-Sec Rate  Max 5-Sec Time  Max 10Sec Rate  Max 10Sec Time  Avg Frame Size  Max Frame Size  Max Frame Time  
------          -------         ------          --------------  --------------  --------------  --------------  --------------  --------------  --------------  --------------  --------------  --------------  
1               0:00:00.000     0:00:07.006     0 kbps          0 kbps          00:00:00.000    0 kbps          00:00:00.000    0 kbps          00:00:00.000    0 bytes         0 bytes         00:00:00.000    
2               0:00:07.006     0:01:02.062     0 kbps          0 kbps          00:00:00.000    0 kbps          00:00:00.000    0 kbps          00:00:00.000    0 bytes         0 bytes         00:00:00.000    
3               0:01:09.068     0:00:01.001     0 kbps          0 kbps          00:00:00.000    0 kbps          00:00:00.000    0 kbps          00:00:00.000    0 bytes         0 bytes         00:00:00.000    

STREAM DIAGNOSTICS:

File            PID             Type            Codec           Language                Seconds                 Bitrate                 Bytes           Packets         
----            ---             ----            -----           --------                --------------          --------------          -------------   -----           
00002.M2TS      4113 (0x1011)   0x1B            AVC                                     0,042                   0                       0               0               
00002.M2TS      4352 (0x1100)   0x80            LPCM            eng (English)           0,042                   0                       0               0               

<–– END FORUMS PASTE ––>

QUICK SUMMARY:

Disc Title: 4AD0071_BD
Disc Size: 21 885 851 523 bytes
Protection: AACS
BD-Java: Yes
Playlist: 00002.MPLS
Size: 0 bytes
Length: 0:01:10.070
Total Bitrate: 0,00 Mbps
Video: MPEG-4 AVC Video / 0 kbps / 1080p / 23,976 fps / 16:9 / High Profile 4.1
Audio: English / LPCM Audio / 2.0 / 48 kHz / 2304 kbps / 24-bit



Gene Clark - No Other (1974) [2019, Deluxe Box Set]

All thanks go to ALLexxess

Gene Clark in my Blog

Download Gene Clark - No Other (1974):