Subcategories

Gene Loves Jezebel - Voodoo Dollies: The Best Of Gene Loves Jezebel (1999)

Posted By: Designol
Gene Loves Jezebel - Voodoo Dollies: The Best Of Gene Loves Jezebel (1999)

Gene Loves Jezebel - Voodoo Dollies: The Best Of Gene Loves Jezebel (1999)
EAC | FLAC | Image (Cue&Log) ~ 515 Mb | Mp3 (CBR320) ~ 180 Mb | Scans included | 01:14:21
Gothic Rock, Dance Rock, Alternative Rock | Label: Beggars Banquet | # BBL 2016 CD

Looked at in the cold light of day and from some years' distance, Gene Loves Jezebel would seem like the last band whose work would stand the test of time. Weird thing, though – in all their "everything goes" exuberance, from abstract goth wailing to balls-out Sunset Strip rock, the Aston brothers, much like their labelmates in the Cult, made everything work somehow. Not all the time, certainly, but Voodoo Dollies wisely draws on the best and biggest hits of the group, not to mention a couple of rarer items for the hardcore fanbase, to make an enjoyable career overview (certainly better than Some of the Best of Gene Loves Jezebel). Following a straight chronological order and enjoying the usual high quality of Beggars Banquet remastering, the 18-track collection is a fine treat. Besides the obvious numbers like "Desire (Come and Get It)," "The Motion of Love" (appearing here in a single mix), and "Jealous," the less well-known songs help to really flesh out the band's freaked-out, glammed-up appeal. There's the psychotic drama of "Upstairs" and "Always a Flame," the self-descriptive, perfect FM radio cut "Gorgeous," the attractive psych-shimmer of "Kiss of Life," and the underrated single "Josephina," which would have given the band a hit in earlier days, but didn't connect with the 1993 zeitgeist. The most obscure cut is an interesting one – an alternate version of Promise's "Influenza," the entrancing and moody instrumental here given striking lyrics sung by Michael Aston and a slightly faster tempo. It would have worked excellently on the original album, and is a definite highlight here. Appreciative liner notes and a slew of photographs from throughout the band's career complete this collection, which will satisfy most casual fans' desires to a T.

Review by Ned Raggett, Allmusic.com

Gene Loves Jezebel - Voodoo Dollies: The Best Of Gene Loves Jezebel (1999)



Tracklist:

01. Upstairs (3:17)
02. Bruises (3:40)
03. Influenza [release] (3:46)
04. Always A Flame (4:33)
05. The Cow (3:28)
06. Stephen (4:47)
07. Heartache (4:23)
08. Desire [come and get it] (3:21)
09. Sweetest Thing (3:12)
10. Beyond Doubt (4:24)
11. Gorgeous (3:46)
12. The Motion Of Love (3:53)
13. Twenty Killer Hurts (3:35)
14. Jealous (3:52)
15. Kiss Of Life (6:02)
16. Josephina (4:03)
17. Break The Chain (4:47)
18. Who Wants To Go To Heaven (5:34)


Exact Audio Copy V0.99 prebeta 4 from 23. January 2008

EAC extraction logfile from 11. February 2009, 9:52

Gene Loves Jezebel / Voodoo Dollies

Used drive : PIONEER DVD-RW DVR-112D Adapter: 1 ID: 1

Read mode : Secure
Utilize accurate stream : Yes
Defeat audio cache : Yes
Make use of C2 pointers : No

Read offset correction : 48
Overread into Lead-In and Lead-Out : No
Fill up missing offset samples with silence : Yes
Delete leading and trailing silent blocks : No
Null samples used in CRC calculations : Yes
Used interface : Installed external ASPI interface

Used output format : Internal WAV Routines
Sample format : 44.100 Hz; 16 Bit; Stereo


TOC of the extracted CD

Track | Start | Length | Start sector | End sector
––––––––––––––––––––––––––––-
1 | 0:00.00 | 3:17.22 | 0 | 14796
2 | 3:17.22 | 3:39.53 | 14797 | 31274
3 | 6:57.00 | 3:46.00 | 31275 | 48224
4 | 10:43.00 | 4:32.57 | 48225 | 68681
5 | 15:15.57 | 3:27.68 | 68682 | 84274
6 | 18:43.50 | 4:47.00 | 84275 | 105799
7 | 23:30.50 | 4:22.47 | 105800 | 125496
8 | 27:53.22 | 3:20.38 | 125497 | 140534
9 | 31:13.60 | 3:12.15 | 140535 | 154949
10 | 34:26.00 | 4:24.10 | 154950 | 174759
11 | 38:50.10 | 3:45.40 | 174760 | 191674
12 | 42:35.50 | 3:52.50 | 191675 | 209124
13 | 46:28.25 | 3:34.62 | 209125 | 225236
14 | 50:03.12 | 3:51.40 | 225237 | 242601
15 | 53:54.52 | 6:02.13 | 242602 | 269764
16 | 59:56.65 | 4:03.20 | 269765 | 288009
17 | 64:00.10 | 4:46.57 | 288010 | 309516
18 | 68:46.67 | 5:33.58 | 309517 | 334549


Range status and errors

Selected range

Filename H:\Gene Loves Jezebel - Voodoo Dollies\CDImage.wav

Peak level 100.0 %
Range quality 100.0 %
Test CRC 5AE942F9
Copy CRC 5AE942F9
Copy OK

No errors occurred


AccurateRip summary

Track 1 accurately ripped (confidence 2) [94F4AE34]
Track 2 accurately ripped (confidence 2) [FCAEB42B]
Track 3 accurately ripped (confidence 2) [2BDA0A79]
Track 4 accurately ripped (confidence 2) [FC88971F]
Track 5 accurately ripped (confidence 2) [43705D33]
Track 6 accurately ripped (confidence 2) [4890C2B6]
Track 7 accurately ripped (confidence 2) [4C14D1EB]
Track 8 accurately ripped (confidence 2) [EE9DB53E]
Track 9 accurately ripped (confidence 2) [24BE2258]
Track 10 accurately ripped (confidence 2) [9CBF3BEB]
Track 11 accurately ripped (confidence 2) [E66DC737]
Track 12 accurately ripped (confidence 2) [EB277563]
Track 13 accurately ripped (confidence 2) [AFCD871C]
Track 14 accurately ripped (confidence 2) [B842CA8F]
Track 15 accurately ripped (confidence 2) [0C1FA93E]
Track 16 accurately ripped (confidence 2) [875DA8A1]
Track 17 accurately ripped (confidence 2) [ABB2E109]
Track 18 accurately ripped (confidence 2) [035A41D4]

All tracks accurately ripped

End of status report

[CUETools log; Date: 16.02.2018 18:28:21; Version: 2.1.4]
[CTDB TOCID: Lgt96ru2xF9m9w7zketHZgy4sA4-] found.
Track | CTDB Status
1 | (8/8) Accurately ripped
2 | (8/8) Accurately ripped
3 | (8/8) Accurately ripped
4 | (8/8) Accurately ripped
5 | (8/8) Accurately ripped
6 | (8/8) Accurately ripped
7 | (8/8) Accurately ripped
8 | (8/8) Accurately ripped
9 | (8/8) Accurately ripped
10 | (8/8) Accurately ripped
11 | (8/8) Accurately ripped
12 | (8/8) Accurately ripped
13 | (8/8) Accurately ripped
14 | (8/8) Accurately ripped
15 | (8/8) Accurately ripped
16 | (8/8) Accurately ripped
17 | (8/8) Accurately ripped
18 | (7/8) Accurately ripped
[AccurateRip ID: 002e120d-026b796e-0b116c12] found.
Track [ CRC | V2 ] Status
01 [94f4ae34|132206ab] (05+08/13) Accurately ripped
02 [fcaeb42b|a476a3f7] (06+08/14) Accurately ripped
03 [2bda0a79|98bbb9d6] (05+08/13) Accurately ripped
04 [fc88971f|57012a5d] (05+08/13) Accurately ripped
05 [43705d33|b9b097bf] (05+08/13) Accurately ripped
06 [4890c2b6|1120ff48] (05+08/13) Accurately ripped
07 [4c14d1eb|a95fabf7] (05+08/13) Accurately ripped
08 [ee9db53e|f541c641] (05+08/13) Accurately ripped
09 [24be2258|fedd0cf2] (04+08/12) Accurately ripped
10 [9cbf3beb|8bbab892] (05+08/13) Accurately ripped
11 [e66dc737|154f8dbe] (05+08/13) Accurately ripped
12 [eb277563|a29407ca] (06+09/15) Accurately ripped
13 [afcd871c|20b850b2] (06+08/14) Accurately ripped
14 [b842ca8f|b8211011] (06+08/14) Accurately ripped
15 [0c1fa93e|f5bed606] (05+08/13) Accurately ripped
16 [875da8a1|0eeb6d4c] (06+08/14) Accurately ripped
17 [abb2e109|a38a9c8e] (05+08/13) Accurately ripped
18 [035a41d4|ec6f85fe] (03+07/10) Accurately ripped

Track Peak [ CRC32 ] [W/O NULL] [ LOG ]
– 100,0 [5AE942F9] [25A46C9D] CRC32
01 100,0 [7FC0FF32] [775FA124]
02 100,0 [158358E9] [A4303D4E]
03 100,0 [791981B7] [64B90DF4]
04 100,0 [3BA8FC7F] [872CB28D]
05 100,0 [AF8C2008] [20F02F5E]
06 100,0 [C48AE136] [895841A8]
07 100,0 [6AD7A2F1] [88DF4091]
08 100,0 [9746CDFC] [13E84C1D]
09 100,0 [445167E9] [C3ED137B]
10 100,0 [F5C0724A] [5A6AC16C]
11 100,0 [F63EE1D2] [B6ADCD46]
12 99,9 [ED34EDF2] [A5CC3619]
13 100,0 [B76250BB] [A7FA81FF]
14 100,0 [B18BA6E1] [60804CBF]
15 100,0 [088AB900] [E96B8F26]
16 99,0 [E270AAD2] [AF316A68]
17 96,9 [AFCD17E2] [326F6004]
18 100,0 [F3B6C62D] [43D6D01A]

foobar2000 1.2 / Dynamic Range Meter 1.1.1
log date: 2018-02-16 18:32:51

––––––––––––––––––––––––––––––––––––––––
Analyzed: Gene Loves Jezebel / Voodoo Dollies
––––––––––––––––––––––––––––––––––––––––

DR Peak RMS Duration Track
––––––––––––––––––––––––––––––––––––––––
DR10 0.00 dB -12.14 dB 3:17 01-Upstairs
DR10 0.00 dB -11.59 dB 3:40 02-Bruises
DR9 0.00 dB -12.48 dB 3:46 03-Influenza [release]
DR10 0.00 dB -11.83 dB 4:33 04-Always A Flame
DR11 0.00 dB -13.82 dB 3:28 05-The Cow
DR13 0.00 dB -15.02 dB 4:47 06-Stephen
DR11 0.00 dB -12.71 dB 4:23 07-Heartache
DR12 0.00 dB -13.19 dB 3:21 08-Desire [come and get it]
DR10 0.00 dB -12.07 dB 3:12 09-Sweetest Thing
DR11 0.00 dB -13.29 dB 4:24 10-Beyond Doubt
DR10 0.00 dB -11.71 dB 3:46 11-Gorgeous
DR11 0.00 dB -11.74 dB 3:53 12-The Motion Of Love
DR10 0.00 dB -11.95 dB 3:35 13-Twenty Killer Hurts
DR10 0.00 dB -11.93 dB 3:52 14-Jealous
DR11 0.00 dB -13.02 dB 6:02 15-Kiss Of Life
DR9 -0.08 dB -10.71 dB 4:03 16-Josephina
DR10 -0.27 dB -12.42 dB 4:47 17-Break The Chain
DR9 0.00 dB -10.24 dB 5:34 18-Who Wants To Go To Heaven
––––––––––––––––––––––––––––––––––––––––

Number of tracks: 18
Official DR value: DR10

Samplerate: 44100 Hz
Channels: 2
Bits per sample: 16
Bitrate: 950 kbps
Codec: FLAC
================================================================================

Gene Loves Jezebel - Voodoo Dollies: The Best Of Gene Loves Jezebel (1999)

Gene Loves Jezebel - Voodoo Dollies: The Best Of Gene Loves Jezebel (1999)

All thanks to original releaser - mmbrnov

More interesting music in My Blog