Subcategories

Gene Ammons - Blue Gene (1958)

Posted By: gribovar
Gene Ammons - Blue Gene (1958)

Gene Ammons - Blue Gene (1958)
EAC Rip | WavPack (image+.cue+log) - 261 MB | MP3 CBR 320 kbps (LAME 3.93) - 104 MB | Covers (8 MB) included
Genre: Jazz | RAR 3% Rec. | Label: Prestige (00025218619226)

The final of his series of jam sessions for Prestige features an excellent septet (the leader on tenor, trumpeter Idrees Sulieman, baritonist Pepper Adams, pianist Mal Waldron, bassist Doug Watkins, drummer Art Taylor and Ray Barretto on congas) stretching out on three original blues and the ballad "Hip Tip"; all four pieces were written by Waldron. Few surprises occur but everyone plays up to their usual high level.
Tracklist:
01. Blue Gene
02. Scamperin'
03. Blue Greens And Beans
04. Hip Tip

Total time: 40:46

Exact Audio Copy V0.99 prebeta 5 from 4. May 2009

EAC extraction logfile from 6. June 2011, 2:16

Gene Ammons / Blue Gene

Used drive : TSSTcorpCDDVDW SH-S223F Adapter: 3 ID: 0

Read mode : Secure
Utilize accurate stream : Yes
Defeat audio cache : Yes
Make use of C2 pointers : No

Read offset correction : 6
Overread into Lead-In and Lead-Out : No
Fill up missing offset samples with silence : Yes
Delete leading and trailing silent blocks : No
Null samples used in CRC calculations : Yes
Used interface : Native Win32 interface for Win NT & 2000

Used output format : Internal WAV Routines
Sample format : 44.100 Hz; 16 Bit; Stereo


TOC of the extracted CD

Track | Start | Length | Start sector | End sector
––––––––––––––––––––––––––––-
1 | 0:00.00 | 13:57.50 | 0 | 62824
2 | 13:57.50 | 8:48.50 | 62825 | 102474
3 | 22:46.25 | 9:04.52 | 102475 | 143326
4 | 31:51.02 | 8:55.03 | 143327 | 183454


Range status and errors

Selected range

Filename D:\temp\Misic\Gene Ammons - Blue Gene\Gene Ammons - Blue Gene.wav

Peak level 65.5 %
Range quality 100.0 %
Test CRC 3FB76CED
Copy CRC 3FB76CED
Copy OK

No errors occurred


AccurateRip summary

Track 1 accurately ripped (confidence 2) [FC38B037]
Track 2 accurately ripped (confidence 2) [8EAEBEBD]
Track 3 accurately ripped (confidence 2) [7390C902]
Track 4 accurately ripped (confidence 2) [3409FAD7]

All tracks accurately ripped

End of status report

[CUETools log; Date: 07.01.2018 23:20:54; Version: 2.1.4]
[CTDB TOCID: EOBJshfmzCXd2FTLhddOubdiHkk-] found.
Track | CTDB Status
1 | (17/17) Accurately ripped
2 | (17/17) Accurately ripped
3 | (17/17) Accurately ripped
4 | (17/17) Accurately ripped
[AccurateRip ID: 00078232-001d5a4b-36098e04] found.
Track [ CRC | V2 ] Status
01 [fc38b037|5584673f] (03+02/22) Accurately ripped
02 [8eaebebd|cdbd74ca] (03+02/22) Accurately ripped
03 [7390c902|e05fe416] (03+02/24) Accurately ripped
04 [3409fad7|b0924a3d] (03+02/20) Accurately ripped

Track Peak [ CRC32 ] [W/O NULL] [ LOG ]
– 65,5 [3FB76CED] [3EBD9AEC] CRC32
01 61,4 [006DB891] [EC316F26]
02 65,5 [333C6A0E] [42C18DF0]
03 64,0 [08F5E033] [308791B7]
04 63,3 [36469C60] [E66D9369]

Thanks to shatterhand