Subcategories

Genesis - Invisible Touch (1986) [2007, CD & DVD, Remastered]

Posted By: v3122
Genesis - Invisible Touch (1986) [2007, CD & DVD, Remastered]

Genesis - Invisible Touch (1986)
EAC | Flac(Image) + Cue + Log & MP3 CBR 320Kbps
Virgin, TOGP-15017 | Japan | ~ 334 or 111 Mb | Scans(jpg) -> 22 Mb
DVD5: PAL 16:9 (720x576) VBR | AC3, 6 ch / DTS, 6 ch -> 4.54 Gb
Progressive Rock

Delivered in the wake of Phil Collins' massive success as a solo star, Invisible Touch was seen at the time as a bit of a Phil Collins solo album disguised as a Genesis album, and it's not hard to see why. Invisible Touch is, without a doubt, Genesis' poppiest album, a sleek, streamlined affair built on electronic percussion and dressed in synths that somehow seem to be programmed, not played by Tony Banks. In that sense, it does seem a bit like No Jacket Required, and the heavy emphasis on pop tunes does serve the singer, not the band, but it's not quite fair to call this a Collins album, and not just because there are two arty tunes that could have fit on its predecessor, Genesis. There is a difference between Collins and Genesis – on his own, Phil was lighter, and Genesis was often a bit chillier. Of course, the title track is the frothiest thing the band ever did, while "In Too Deep" and "Throwing It All Away" are power ballads that could be seen as Phil projects, but "Land of Confusion" was a protest tune and "Tonight, Tonight, Tonight" was a stark, scary tale of scoring dope (which made its inclusion in a Michelob campaign in the '80s almost as odd as recovering alcoholic Eric Clapton shilling for the brewery). But those songs had big hooks that excused their coldness, and the arty moments sank to the bottom, obscured by the big, bold pop hooks here – pop that was the sound of the mainstream in the late '80s, pop that still effortlessly evokes its time.

by Stephen Thomas Erlewine, allmusic
Genesis - Invisible Touch (1986):

Genesis - Invisible Touch (1986) [2007, CD & DVD, Remastered]

Tracklist CD:

01. Invisible Touch 3:30
02. Tonight, Tonight, Tonight 8:54
03. Land Of Confusion 4:46
04. In Too Deep 5:03
05. Anything She Does 4:21
06. Domino (Part 1: In The Glow Of The Night/Part 2: The Last Domino) 10:45
07. Throwing It All Away 3:51
08. The Brazilian 5:04

Exact Audio Copy V1.0 beta 3 from 29. August 2011

EAC extraction logfile from 18. January 2014, 22:57

Genesis / Invisible Touch (TOGP-15017)

Used drive : PLEXTOR DVDR PX-891SA Adapter: 3 ID: 0

Read mode : Secure
Utilize accurate stream : Yes
Defeat audio cache : Yes
Make use of C2 pointers : No

Read offset correction : 6
Overread into Lead-In and Lead-Out : No
Fill up missing offset samples with silence : Yes
Delete leading and trailing silent blocks : No
Null samples used in CRC calculations : Yes
Used interface : Native Win32 interface for Win NT & 2000

Used output format : User Defined Encoder
Selected bitrate : 1024 kBit/s
Quality : High
Add ID3 tag : No
Command line compressor : C:\Program Files\Exact Audio Copy\Flac\flac.exe
Additional command line options : -V -8 -T "Genre=%genre%" -T "Artist=%artist%" -T "Title=%title%" -T "Album=%albumtitle%" -T "Date=%year%" -T "Tracknumber=%tracknr%" -T "Comment=%comment%" %source%


TOC of the extracted CD

Track | Start | Length | Start sector | End sector
––––––––––––––––––––––––––––-
1 | 0:00.00 | 3:30.10 | 0 | 15759
2 | 3:30.10 | 8:53.51 | 15760 | 55785
3 | 12:23.61 | 4:46.24 | 55786 | 77259
4 | 17:10.10 | 5:02.63 | 77260 | 99972
5 | 22:12.73 | 4:20.54 | 99973 | 119526
6 | 26:33.52 | 10:45.00 | 119527 | 167901
7 | 37:18.52 | 3:51.30 | 167902 | 185256
8 | 41:10.07 | 5:04.33 | 185257 | 208089


Range status and errors

Selected range

Filename H:\dafnaplus\Genesis\JP\Genesis - Invisible Touch\Genesis - Invisible Touch (TOGP-15017).wav

Peak level 100.0 %
Extraction speed 9.0 X
Range quality 99.9 %
Test CRC D90DD774
Copy CRC D90DD774
Copy OK

No errors occurred


AccurateRip summary

Track 1 accurately ripped (confidence 22) [5D0B5087] (AR v2)
Track 2 accurately ripped (confidence 22) [CCF980F2] (AR v2)
Track 3 accurately ripped (confidence 22) [22A928FB] (AR v2)
Track 4 accurately ripped (confidence 22) [6339927D] (AR v2)
Track 5 accurately ripped (confidence 22) [6E1EBC9E] (AR v2)
Track 6 accurately ripped (confidence 22) [181B37CE] (AR v2)
Track 7 accurately ripped (confidence 22) [2ACFD46D] (AR v2)
Track 8 accurately ripped (confidence 22) [1BE74F95] (AR v2)

All tracks accurately ripped

End of status report

==== Log checksum 1E91F340491D029695B7F5B7580AE645F27448DBC1CAA26372918B6D651640BF ====


[CUETools log; Date: 22.01.2014 17:07:06; Version: 2.1.5]
[CTDB TOCID: wZGryqgYmjG7se_cMsNC.ElvAD8-] found.
Track | CTDB Status
1 | (73/75) Accurately ripped
2 | (74/75) Accurately ripped
3 | (74/75) Accurately ripped
4 | (74/75) Accurately ripped
5 | (74/75) Accurately ripped
6 | (74/75) Accurately ripped
7 | (74/75) Accurately ripped
8 | (74/75) Accurately ripped
[AccurateRip ID: 000e2f13-005f7216-530ad608] found.
Track [ CRC | V2 ] Status
01 [a7165c8d|5d0b5087] (039+022/298) Accurately ripped
02 [c85a6e44|ccf980f2] (039+022/297) Accurately ripped
03 [fd9d3371|22a928fb] (039+022/299) Accurately ripped
04 [02125b8d|6339927d] (038+022/298) Accurately ripped
05 [63d493c9|6e1ebc9e] (039+022/298) Accurately ripped
06 [f73d377a|181b37ce] (039+022/299) Accurately ripped
07 [49cac1df|2acfd46d] (039+022/299) Accurately ripped
08 [c60c07b2|1be74f95] (039+022/298) Accurately ripped
Offsetted by -12:
01 [14cb8b68] (084/298) Accurately ripped
02 [b9d1e2fd] (084/297) Accurately ripped
03 [dcb7b305] (085/299) Accurately ripped
04 [b205fda6] (085/298) Accurately ripped
05 [7ba57931] (084/298) Accurately ripped
06 [8fe53fa1] (084/299) Accurately ripped
07 [8fdee5b5] (085/299) Accurately ripped
08 [78aa38ce] (083/298) Accurately ripped
Offsetted by -6:
01 [3dd80b71] (045/298) Accurately ripped
02 [f23c7a92] (045/297) Accurately ripped
03 [6cfc73da] (045/299) Accurately ripped
04 [a4fc22eb] (046/298) Accurately ripped
05 [1b6e59c6] (046/298) Accurately ripped
06 [eb5958e0] (046/299) Accurately ripped
07 [b6e72cda] (046/299) Accurately ripped
08 [70951594] (044/298) Accurately ripped
Offsetted by -48:
01 [7224bae6] (000/298) No match (V2 was not tested)
02 [3f8e55c9] (000/297) No match (V2 was not tested)
03 [4789e881] (000/299) No match (V2 was not tested)
04 [b592fa47] (000/298) No match (V2 was not tested)
05 [7c13236f] (000/298) No match (V2 was not tested)
06 [3593b768] (000/299) No match (V2 was not tested)
07 [8b0577d7] (000/299) No match (V2 was not tested)
08 [83b6b6dd] (000/298) No match (V2 was not tested)

Track Peak [ CRC32 ] [W/O NULL] [ LOG ]
– 100,0 [D90DD774] [D8A14D50] CRC32
01 100,0 [11A72D21] [9EB84C6F]
02 100,0 [2C1E537B] [5380BD63]
03 100,0 [E3B6B778] [6422F1EE]
04 100,0 [9B1EBAB0] [279724FB]
05 100,0 [959BA895] [403CAF4A]
06 100,0 [879D0419] [353F589E]
07 100,0 [D7A6DF8C] [17E74FBA]
08 100,0 [1680DA08] [65D3B8A1]


Genesis - Invisible Touch (1986) [2007, CD & DVD, Remastered]

Tracklist DVD:

1. Invisible Touch
2. Tonight, Tonight, Tonight
3. Land Of Confusion
4. In Too Deep
5. Anything She Does
6. Domino: In The Glow Of The Night / The Last Domino
7. Throwing It All Away
8. The Brazilian

Extras:
1. Videos (16:9, 5.1 DTS, 5.1 DD):
Invisible Touch
Tonight Tonight Tonight
Land Of Confusion
In Too Deep
Anything She Does
2. Reissues Interview 2007 (16:9)
3. Behind The Scenes - Land Of Confusion (16:9)

Title: Genesis 1986 - Invisible Touch - DVD
Size: 4.20 Gb ( 4 403 048,00 KBytes ) - DVD-5
Enabled regions: 1, 2, 3, 4, 5, 6, 7, 8

VTS_01 :
Play Length: 00:00:00
Video: PAL 16:9 (720x576) VBR, Auto Letterboxed

VTS_02 :
Play Length: 00:46:10+00:00:00
Video: PAL 16:9 (720x576) VBR, Auto Letterboxed
Audio:
English (DTS, 6 ch)
English (Dolby AC3, 6 ch)

VTS_03 :
Play Length: 00:04:07+00:06:20+00:05:30+00:04:40+00:06:02
Video: PAL 4:3 (720x576) VBR
Audio:
English (DTS, 6 ch)
English (Dolby AC3, 6 ch)

VTS_04 :
Play Length: 00:00:09
Video: PAL 16:9 (720x576) VBR, Auto Letterboxed
Subtitles:
Not specified

VTS_05 :
Play Length: 00:19:10
Video: PAL 16:9 (720x576) VBR, Auto Letterboxed
Audio:
Not specified (Dolby AC3, 2 ch)

VTS_06 :
Play Length: 00:00:00
Video: PAL 4:3 (720x576) VBR

VTS_07 :
Play Length: 00:08:43+00:00:00
Video: PAL 4:3 (720x576) VBR
Audio:
Not specified (Dolby AC3, 2 ch)


Genesis - Invisible Touch (1986) [2007, CD & DVD, Remastered]

Genesis - Invisible Touch (1986) [2007, CD & DVD, Remastered]

Genesis - Invisible Touch (1986) [2007, CD & DVD, Remastered]

Genesis - Invisible Touch (1986) [2007, CD & DVD, Remastered]

Genesis - Invisible Touch (1986) [2007, CD & DVD, Remastered]

Genesis - Invisible Touch (1986) [2007, CD & DVD, Remastered]

All thanks go to the original releaser

Genesis or Genesis in my Blog

Download Genesis - Invisible Touch (1986):