Subcategories

Geoffrey Applegate, Vienna Symphony Orchestra, Franz Litschauer - Sibelius: Violin Concerto in D Minor, Op.47 (2006)

Posted By: tirexiss
Geoffrey Applegate, Vienna Symphony Orchestra, Franz  Litschauer - Sibelius: Violin Concerto in D Minor, Op.47 (2006)

Geoffrey Applegate, Vienna Symphony Orchestra, Franz Litschauer - Sibelius: Violin Concerto in D Minor, Op.47 (2006)
EAC | FLAC (tracks+.cue, log) | Covers Included | 57:12 | 278 MB
Genre: Classical | Label: Music Minus One | Catalog: MMO CD 3144

Sibelius' 20th-century masterpiece is unique in its beauty, and is a favorite in concert halls worldwide, with its Scandinavian Romantic themes. A must for the serious violinist! Includes a high-quality printed music score and a compact disc containing a complete version with soloist, in split-channel stereo (soloist on the right channel); then a second version in full stereo of the orchestral accompaniment, minus you, the soloist. Performed by Geoffrey Applegate, violin Accompaniment: Vienna Symphony Orchestra Conductor: Franz Litschauer

Geoffrey Applegate, Vienna Symphony Orchestra, Franz  Litschauer - Sibelius: Violin Concerto in D Minor, Op.47 (2006)

Track List:

1.-3. Sibelius. Violin Concerto d-moll, Op.47 - Complete Version
4. Tuning
5.-7. Sibelius. Violin Concerto d-moll, Op.47 - Accompaniment Version (Minus 1)

Performers:
Geoffrey Applegate, Violin
Vienna Symphony Orchestra
Franz Litschauer, conductor

Exact Audio Copy V0.99 prebeta 4 from 23. January 2008

EAC extraction logfile from 19. February 2009, 2:28

G.Applegate. Minus 1. / Sibelius, Violin Concerto

Used drive : TOSHIBA DVD-ROM SD-M1712 Adapter: 3 ID: 1

Read mode : Secure
Utilize accurate stream : Yes
Defeat audio cache : Yes
Make use of C2 pointers : No

Read offset correction : -472
Overread into Lead-In and Lead-Out : No
Fill up missing offset samples with silence : Yes
Delete leading and trailing silent blocks : No
Null samples used in CRC calculations : Yes
Used interface : Installed external ASPI interface
Gap handling : Appended to previous track

Used output format : User Defined Encoder
Selected bitrate : 128 kBit/s
Quality : High
Add ID3 tag : No
Command line compressor : C:\Program Files\FLAC\flac.exe
Additional command line options : -V -8 -T "artist=%a" -T "title=%t" -T "album=%g" -T "date=%y" -T "tracknumber=%n" -T "genre=%m" %s


TOC of the extracted CD

Track | Start | Length | Start sector | End sector
––––––––––––––––––––––––––––-
1 | 0:00.00 | 15:01.50 | 0 | 67624
2 | 15:01.50 | 6:19.30 | 67625 | 96079
3 | 21:21.05 | 7:14.35 | 96080 | 128664
4 | 28:35.40 | 0:11.50 | 128665 | 129539
5 | 28:47.15 | 15:00.52 | 129540 | 197091
6 | 43:47.67 | 6:20.30 | 197092 | 225621
7 | 50:08.22 | 7:07.30 | 225622 | 257676


Track 1

Filename D:\Раздачи\Текущие\Sibelius Violin Concerto\Sibelius Violin Concerto\Minus 1, Applegate\01 - Complete. I. Allegro moderato.wav

Pre-gap length 0:00:02.00

Peak level 100.0 %
Track quality 100.0 %
Test CRC 6403058F
Copy CRC 6403058F
Track not present in AccurateRip database
Copy OK

Track 2

Filename D:\Раздачи\Текущие\Sibelius Violin Concerto\Sibelius Violin Concerto\Minus 1, Applegate\02 - Complete. II.Adagio di molto.wav

Pre-gap length 0:00:05.36

Peak level 59.3 %
Track quality 100.0 %
Test CRC 10135A3E
Copy CRC 10135A3E
Track not present in AccurateRip database
Copy OK

Track 3

Filename D:\Раздачи\Текущие\Sibelius Violin Concerto\Sibelius Violin Concerto\Minus 1, Applegate\03 - Complete. III. Allegro, ma non tanto.wav

Pre-gap length 0:00:06.14

Peak level 100.0 %
Track quality 100.0 %
Test CRC C8CC42B2
Copy CRC C8CC42B2
Track not present in AccurateRip database
Copy OK

Track 4

Filename D:\Раздачи\Текущие\Sibelius Violin Concerto\Sibelius Violin Concerto\Minus 1, Applegate\04 - Tuning.wav

Pre-gap length 0:00:08.36

Peak level 1.4 %
Track quality 100.0 %
Test CRC FB9D2B8D
Copy CRC FB9D2B8D
Track not present in AccurateRip database
Copy OK

Track 5

Filename D:\Раздачи\Текущие\Sibelius Violin Concerto\Sibelius Violin Concerto\Minus 1, Applegate\05 - Minus 1. I. Allegro moderato.wav

Pre-gap length 0:00:04.81

Peak level 99.9 %
Track quality 100.0 %
Test CRC FEB45384
Copy CRC FEB45384
Track not present in AccurateRip database
Copy OK

Track 6

Filename D:\Раздачи\Текущие\Sibelius Violin Concerto\Sibelius Violin Concerto\Minus 1, Applegate\06 - Minus 1. II.Adagio di molto.wav

Pre-gap length 0:00:04.10

Peak level 58.2 %
Track quality 100.0 %
Test CRC 6F4BE5DB
Copy CRC 6F4BE5DB
Track not present in AccurateRip database
Copy OK

Track 7

Filename D:\Раздачи\Текущие\Sibelius Violin Concerto\Sibelius Violin Concerto\Minus 1, Applegate\07 - Minus 1. III. Allegro, ma non tanto.wav

Pre-gap length 0:00:06.05

Peak level 88.9 %
Track quality 100.0 %
Test CRC 83446C7E
Copy CRC 83446C7E
Track not present in AccurateRip database
Copy OK


None of the tracks are present in the AccurateRip database

No errors occurred

End of status report

[CUETools log; Date: 27.12.2017 17:42:20; Version: 2.1.5]
[CTDB TOCID: g1mzZaJQfg_RShzRHIECGIAXcio-] disk not present in database.
[AccurateRip ID: 0010d1dd-0061cbd5-560d6b07] found.
Track [ CRC | V2 ] Status
01 [9f97c9de|e086573f] (1+0/1) Accurately ripped
02 [8dacc9cc|b8bc6947] (1+0/1) Accurately ripped
03 [d4a0c63f|4ce6a017] (1+0/1) Accurately ripped
04 [91c527aa|9660cf20] (1+0/1) Accurately ripped
05 [f1e58f3e|dd0fe11d] (1+0/1) Accurately ripped
06 [e695f669|658ba8e3] (1+0/1) Accurately ripped
07 [27d42baa|0ce6dd92] (1+0/1) Accurately ripped

Track Peak [ CRC32 ] [W/O NULL] [ LOG ]
– 100,0 [E77A9F83] [F374629E]
01 100,0 [6403058F] [61E60A60] CRC32
02 59,3 [10135A3E] [F6D4BCED] CRC32
03 100,0 [C8CC42B2] [FE27D38C] CRC32
04 1,4 [FB9D2B8D] [D03B3AD0] CRC32
05 99,9 [FEB45384] [32C5EC6A] CRC32
06 58,2 [6F4BE5DB] [7E806C39] CRC32
07 88,9 [83446C7E] [3B0879BB] CRC32

Thanks to the Original ripper Amarillo!

Download: