Tags
Language
Tags

George Harrison - Best Of Dark Horse 1976-1989 (1989)

Posted By: popsakov
George Harrison - Best Of Dark Horse 1976-1989 (1989)

George Harrison - Best Of Dark Horse 1976-1989 (1989)
EAC Rip | WavPack (Img) + Cue + Log ~ 375 Mb | MP3 CBR320 ~ 147 Mb
Full Scans ~ 88 Mb | 01:00:27 | RAR 5% Recovery
Pop Rock, Classic Rock | Dark Horse Records / Warner Bros. Records #9 25726-2 / D-108307

George Harrison's albums have been notoriously uneven, but despite the rough patches, his talent for songcraft never really left him, as the compilation The Best of Dark Horse (1976-1989) proves. A 15-song retrospective covering five albums, The Best of Dark Horse contains nearly every gem from 33 1/3, George Harrison, Somewhere in England, Gone Troppo, and Cloud Nine, including "Crackerbox Palace," "All Those Years Ago," "Got My Mind Set on You," "Cloud 9," "When We Was Fab," and the lovely "Blow Away." For most casual fans, the record will be a welcome summation of a hit-and-miss era of Harrison's career.

~ Stephen Thomas Erlewine, All Music

***************

George Harrison - Best Of Dark Horse 1976-1989 (1989)

George Harrison - Best Of Dark Horse 1976-1989 (1989)

Track List:

01. Poor Little Girl [4:34]
02. Blow Away [3:59]
03. That's The Way It Goes [3:33]
04. Cockamamie Business [5:16]
05. Wake Up My Love [3:32]
06. Life Itself [4:25]
07. Got My Mind Set On You [3:51]
08. Crackerbox Palace [3:56]
09. Cloud 9 [3:15]
10. Here Comes The Moon [4:08]
11. Gone Troppo [4:24]
12. When We Was Fab [3:57]
13. Love Comes To Everyone [3:42]
14. All Those Years Ago [3:45]
15. Cheer Down [4:09]

Exact Audio Copy V1.0 beta 3 from 29. August 2011

EAC extraction logfile from 16. August 2014, 20:39

George Harrison / The Best Of Dark Horse (1976-1989)

Used drive : TSSTcorpCDDVDW TS-H653B Adapter: 0 ID: 0

Read mode : Secure
Utilize accurate stream : Yes
Defeat audio cache : Yes
Make use of C2 pointers : No

Read offset correction : 6
Overread into Lead-In and Lead-Out : No
Fill up missing offset samples with silence : Yes
Delete leading and trailing silent blocks : No
Null samples used in CRC calculations : Yes
Used interface : Native Win32 interface for Win NT & 2000

Used output format : User Defined Encoder
Selected bitrate : 896 kBit/s
Quality : High
Add ID3 tag : No
Command line compressor : C:\Program Files (x86)\Exact Audio Copy\wavpack-4.70.0\wavpack.exe
Additional command line options : -hm %source% %dest%


TOC of the extracted CD

Track | Start | Length | Start sector | End sector
––––––––––––––––––––––––––––-
1 | 0:00.00 | 4:33.62 | 0 | 20536
2 | 4:33.62 | 3:59.35 | 20537 | 38496
3 | 8:33.22 | 3:33.35 | 38497 | 54506
4 | 12:06.57 | 5:16.28 | 54507 | 78234
5 | 17:23.10 | 3:32.07 | 78235 | 94141
6 | 20:55.17 | 4:24.43 | 94142 | 113984
7 | 25:19.60 | 3:51.20 | 113985 | 131329
8 | 29:11.05 | 3:56.27 | 131330 | 149056
9 | 33:07.32 | 3:15.35 | 149057 | 163716
10 | 36:22.67 | 4:07.55 | 163717 | 182296
11 | 40:30.47 | 4:24.08 | 182297 | 202104
12 | 44:54.55 | 3:56.72 | 202105 | 219876
13 | 48:51.52 | 3:41.68 | 219877 | 236519
14 | 52:33.45 | 3:44.57 | 236520 | 253376
15 | 56:18.27 | 4:08.53 | 253377 | 272029


Range status and errors

Selected range

Filename G:\MUSIC\NL[ZAM]\GHBODH\George Harrison - The Best Of Dark Horse (1976-1989).wav

Peak level 81.4 %
Extraction speed 7.0 X
Range quality 99.9 %
Test CRC AED21A62
Copy CRC AED21A62
Copy OK

No errors occurred


AccurateRip summary

Track 1 accurately ripped (confidence 1) [654A5C9B] (AR v2)
Track 2 accurately ripped (confidence 1) [92BBE0F8] (AR v2)
Track 3 accurately ripped (confidence 1) [B089F7A0] (AR v2)
Track 4 accurately ripped (confidence 1) [DFF4435E] (AR v2)
Track 5 accurately ripped (confidence 1) [92D410DC] (AR v2)
Track 6 accurately ripped (confidence 1) [D1CCDB47] (AR v2)
Track 7 accurately ripped (confidence 1) [9A808412] (AR v2)
Track 8 accurately ripped (confidence 1) [319C0F5D] (AR v2)
Track 9 accurately ripped (confidence 1) [E4F12591] (AR v2)
Track 10 accurately ripped (confidence 1) [CFB3A386] (AR v2)
Track 11 accurately ripped (confidence 1) [0AF836D0] (AR v2)
Track 12 accurately ripped (confidence 1) [DD253920] (AR v2)
Track 13 accurately ripped (confidence 1) [34156E4D] (AR v2)
Track 14 accurately ripped (confidence 1) [7ABA6234] (AR v2)
Track 15 accurately ripped (confidence 1) [AEFE0917] (AR v2)

All tracks accurately ripped

End of status report

–– CUETools DB Plugin V2.1.4

[CTDB TOCID: zAY6kWk1kzAReUt.3HjZkySpd3Y-] found
Submit result: zAY6kWk1kzAReUt.3HjZkySpd3Y- has been confirmed
Track | CTDB Status
1 | (6/6) Accurately ripped
2 | (6/6) Accurately ripped
3 | (6/6) Accurately ripped
4 | (6/6) Accurately ripped
5 | (6/6) Accurately ripped
6 | (6/6) Accurately ripped
7 | (6/6) Accurately ripped
8 | (6/6) Accurately ripped
9 | (6/6) Accurately ripped
10 | (6/6) Accurately ripped
11 | (6/6) Accurately ripped
12 | (6/6) Accurately ripped
13 | (6/6) Accurately ripped
14 | (6/6) Accurately ripped
15 | (6/6) Accurately ripped

[CUETools log; Date: 08.04.2017 15:58:26; Version: 2.1.5]
[CTDB TOCID: zAY6kWk1kzAReUt.3HjZkySpd3Y-] found.
Track | CTDB Status
1 | (8/8) Accurately ripped
2 | (8/8) Accurately ripped
3 | (8/8) Accurately ripped
4 | (8/8) Accurately ripped
5 | (8/8) Accurately ripped
6 | (8/8) Accurately ripped
7 | (8/8) Accurately ripped
8 | (8/8) Accurately ripped
9 | (8/8) Accurately ripped
10 | (8/8) Accurately ripped
11 | (8/8) Accurately ripped
12 | (8/8) Accurately ripped
13 | (8/8) Accurately ripped
14 | (8/8) Accurately ripped
15 | (8/8) Accurately ripped
[AccurateRip ID: 0021b9a5-017c1d4e-d70e2b0f] found.
Track [ CRC | V2 ] Status
01 [f2b1b39f|654a5c9b] (0+2/2) Accurately ripped
02 [d9319cbe|92bbe0f8] (0+2/2) Accurately ripped
03 [fa616eae|b089f7a0] (0+2/2) Accurately ripped
04 [ba1992da|dff4435e] (0+2/2) Accurately ripped
05 [e23c2d85|92d410dc] (0+2/2) Accurately ripped
06 [32fc9cbc|d1ccdb47] (0+2/2) Accurately ripped
07 [637082fd|9a808412] (0+2/2) Accurately ripped
08 [19c67a5a|319c0f5d] (0+2/2) Accurately ripped
09 [eae7ad7a|e4f12591] (0+2/2) Accurately ripped
10 [9e6af95a|cfb3a386] (0+2/2) Accurately ripped
11 [5e4e9453|0af836d0] (0+2/2) Accurately ripped
12 [47cd3e71|dd253920] (0+2/2) Accurately ripped
13 [f7a09171|34156e4d] (0+2/2) Accurately ripped
14 [2b28372b|7aba6234] (0+2/2) Accurately ripped
15 [8137c648|aefe0917] (0+2/2) Accurately ripped

Track Peak [ CRC32 ] [W/O NULL] [ LOG ]
– 81,4 [AED21A62] [B6FB5BAC] CRC32
01 74,3 [33CB4507] [74B32C5E]
02 74,1 [5A37633C] [F311468C]
03 69,7 [B47CCC85] [C843039C]
04 70,3 [03A8BE3A] [5F6D5FCB]
05 67,3 [92709EF8] [B565B3AD]
06 71,6 [EF1318F8] [296965F2]
07 71,2 [F78EB5EF] [F92850A6]
08 72,3 [F2671F0B] [32A5DB15]
09 70,4 [A2D05E91] [75B18D4C]
10 62,5 [616E4998] [834DB8FE]
11 73,9 [28078AD4] [3046BE89]
12 70,6 [736C904A] [124E34E8]
13 67,9 [A3E218C8] [E20863CB]
14 81,4 [A0897663] [FB66AF10]
15 73,7 [A6EA2428] [121541CF]

George Harrison - Best Of Dark Horse 1976-1989 (1989)


All thanks go to Alex ZAM

>>> George Harrison in my Blog <<<

DOWNLOAD: