Subcategories
Tags
Language
Tags

George Michael - In Memory Of George Michael (2017)

Posted By: popsakov
George Michael - In Memory Of George Michael (2017)

George Michael - In Memory Of George Michael (2017)
EAC Rip | FLAC (Img) + Cue + Log ~ 205 Mb | MP3 CBR320 ~ 89 Mb
Full Scans ~ 58 Mb | 00:37:02 | RAR 5% Recovery
Pop, Rock, Instrumental | Digital Legends #DL 809

In memory of George Michael. While his detractors are many and he was not immune to criticism, George Michael remains a first class musical performer and an entertainer of rare ability whose place in the great cannon of popular music was assured soon after he split up Wham. This document celebrates the startling longevity and consummate professionalism of George Michael.
***************

George Michael - In Memory Of George Michael (2017)

George Michael - In Memory Of George Michael (2017)

Track List:

01. George Michael 1963-2016 (The Last Interview) [2:01]
02. Wham Interview 1984 [5:38]
03. Careless Whisper (Acoustic Tribute Song) [3:00]
04. Last Christmas (Guitar Tribute Version) [2:54]
05. To Be Forgiven (Acoustic Tribute Song) [3:50]
06. Faith (Instrumental Tribute Song) [3:01]
07. Mothers Pride (Instrumental Tribute Song) [4:02]
08. One More Try (Instrumental Tribute Song) [5:51]
09. Jesus To A Child (Instrumental Tribute Song) [6:45]

Exact Audio Copy V1.0 beta 3 from 29. August 2011

EAC extraction logfile from 30. March 2017, 12:53

George Michael / In Memory Of George Michael

Used drive : PIONEER BD-RW BDR-TD03 Adapter: 0 ID: 1

Read mode : Secure
Utilize accurate stream : Yes
Defeat audio cache : Yes
Make use of C2 pointers : No

Read offset correction : 667
Overread into Lead-In and Lead-Out : No
Fill up missing offset samples with silence : Yes
Delete leading and trailing silent blocks : No
Null samples used in CRC calculations : Yes
Used interface : Native Win32 interface for Win NT & 2000

Used output format : User Defined Encoder
Selected bitrate : 768 kBit/s
Quality : High
Add ID3 tag : No
Command line compressor : C:\Program Files (x86)\Exact Audio Copy\FLAC\FLAC.EXE
Additional command line options : -6 -V -T "ARTIST=%artist%" -T "TITLE=%title%" -T "ALBUM=%albumtitle%" -T "DATE=%year%" -T "TRACKNUMBER=%tracknr%" -T "GENRE=%genre%" -T "COMMENT=%comment%" -T "BAND=%albuminterpret%" -T "ALBUMARTIST=%albuminterpret%" -T "COMPOSER=%composer%" %haslyrics%–tag-from-file=LYRICS="%lyricsfile%"%haslyrics% -T "DISCNUMBER=%cdnumber%" -T "TOTALDISCS=%totalcds%" -T "TOTALTRACKS=%numtracks%" %hascover%–picture="%coverfile%"%hascover% %source% -o %dest%


TOC of the extracted CD

Track | Start | Length | Start sector | End sector
––––––––––––––––––––––––––––-
1 | 0:00.00 | 2:01.00 | 0 | 9074
2 | 2:01.00 | 5:38.08 | 9075 | 34432
3 | 7:39.08 | 3:00.00 | 34433 | 47932
4 | 10:39.08 | 2:53.45 | 47933 | 60952
5 | 13:32.53 | 3:50.15 | 60953 | 78217
6 | 17:22.68 | 3:00.60 | 78218 | 91777
7 | 20:23.53 | 4:02.08 | 91778 | 109935
8 | 24:25.61 | 5:50.45 | 109936 | 136230
9 | 30:16.31 | 6:45.23 | 136231 | 166628


Range status and errors

Selected range

Filename C:\Users\Deris\Desktop\GeMiTrib\George Michael - In Memory Of George Michael.wav

Peak level 100.0 %
Extraction speed 4.4 X
Range quality 100.0 %
Test CRC 595FFDBA
Copy CRC 595FFDBA
Copy OK

No errors occurred


AccurateRip summary

Track 1 not present in database
Track 2 not present in database
Track 3 not present in database
Track 4 not present in database
Track 5 not present in database
Track 6 not present in database
Track 7 not present in database
Track 8 not present in database
Track 9 not present in database

None of the tracks are present in the AccurateRip database

End of status report

–– CUETools DB Plugin V2.1.3

[CTDB TOCID: iraS7oQgM.eSrhQ83hBmxfgcrvE-] disk not present in database, Submit result: database access error: The request was aborted: The request was canceled.


==== Log checksum 12104F332B6C761BCCCF85ACC2472DAF3503F951918D8BD2718D556720788CFE ====

George Michael - In Memory Of George Michael (2017)


All thanks go to Boris1

>>> My Blog <<<

DOWNLOAD: