Subcategories

George Thorogood And The Destroyers - The Dirty Dozen (2009) Repost / New Rip

Posted By: popsakov
George Thorogood And The Destroyers - The Dirty Dozen (2009) Repost / New Rip

George Thorogood And The Destroyers - The Dirty Dozen (2009)
EAC Rip | FLAC (Img) + Cue + Log ~ 376 Mb | MP3 CBR320 ~ 134 Mb
Scans Included (JPG, 600 dpi) | RAR 5% Recovery
Boogie Rock, Blues Rock, Rock & Roll | Capitol Records #509996 84082 20

The Dirty Dozen is the fourteenth studio album from blues rock artist George Thorogood and the Destroyers. The album was released on July 28, 2009. The Dirty Dozen reached #1 on the Billboard Top Blues Albums and was on the chart for 11 weeks. The album includes six new songs (1-6) and six classic favorites (7-12), including three tracks that were previously out-of-print in the U.S.
~ Wiki

After more than a decade of recording for other labels, George Thorogood & the Destroyers moved back to EMI/Capitol for the release of 2009's The Dirty Dozen. Split into two sides (just like a vinyl album!) and consisting of covers of classic blues songs, some bar band favorites, and a couple of lesser-known tracks, the album showcases the current sound of the band and digs back into the archives to uncover some buried tracks from the '80s and '90s. What's uncanny is that apart from the tinny sound of the recordings from the late '80s/early '90s, the band and Thorogood sound exactly the same almost two decades later. Just as they sound virtually unchanged from the first time they stepped into a recording studio. George still has the same ferocious slide technique, his growling vocals have barely aged, and the band still has the feel of skilled musicians who know how to play it simple. In other words, GT & the Destroyers still rock, and if you were ever a fan, you still should be. The only real problem with this record is that as cool as it is to hear the band's 1991 take on "Six Days on the Road" or their tumble through Howlin' Wolf's "Howlin' for My Baby," it'd be better to hear more of the new tracks. They have a more immediate feel and the group sounds like they're playing for fun rather than chasing commercial success. There's a fire in "Born Lover" and a bounce in "Run Myself Out of Town" that the old, muffled production can't reproduce. Not that the old tracks are bad by any means, and longtime fans of GT will be glad to have them. Just as they will be glad that he and the Destroyers are still around and still rocking out.
~ Tim Sendra, All Music

***************

George Thorogood And The Destroyers - The Dirty Dozen (2009) Repost / New Rip

George Thorogood And The Destroyers - The Dirty Dozen (2009) Repost / New Rip

Track List:

01. Tail Dragger [3:42]
02. Drop Down Mama [4:20]
03. Run Myself Out Of Town [3:03]
04. Born Lover [4:13]
05. Twenty Dollar Gig [3:16]
06. Let Me Pass [3:41]
07. Howlin' For My Baby [5:13]
08. Highway 49 [5:47]
09. Six Days On The Road [4:24]
10. Treat Her Right [2:59]
11. Hello Little Girl [3:48]
12. Blue Highway [4:44]

Personnel:
George Thorogood – guitar, vocals
Jim Suhler – guitar (tracks 1-6)
Bill Blough – bass
Jeff Simon – drums
Buddy Leach – saxophone (tracks 1-6)
Hank Carter – saxophone (tracks 7-12)
Steve Chrismar – guitar (tracks 8-11)
Ian Stewart – piano (track 12)
Jake Vest – backing vocals (track 3)

Exact Audio Copy V1.1 from 23. June 2015

EAC extraction logfile from 30. September 2017, 12:35

George Thorogood And The Destroyers / The Dirty Dozen

Used drive : Optiarc DVD RW AD-7283S Adapter: 1 ID: 0

Read mode : Secure
Utilize accurate stream : Yes
Defeat audio cache : Yes
Make use of C2 pointers : No

Read offset correction : 48
Overread into Lead-In and Lead-Out : No
Fill up missing offset samples with silence : Yes
Delete leading and trailing silent blocks : No
Null samples used in CRC calculations : Yes
Used interface : Native Win32 interface for Win NT & 2000

Used output format : User Defined Encoder
Selected bitrate : 128 kBit/s
Quality : High
Add ID3 tag : No
Command line compressor : C:\Program Files (x86)\Exact Audio Copy\Flac\flac.exe
Additional command line options : -V -8 -T "Genre=%genre%" -T "Artist=%artist%" -T "Title=%title%" -T "Album=%albumtitle%" -T "Date=%year%" -T "Tracknumber=%tracknr%" -T "Comment=%comment%" %source%


TOC of the extracted CD

Track | Start | Length | Start sector | End sector
––––––––––––––––––––––––––––-
1 | 0:00.00 | 3:41.61 | 0 | 16635
2 | 3:41.61 | 4:20.09 | 16636 | 36144
3 | 8:01.70 | 3:03.23 | 36145 | 49892
4 | 11:05.18 | 4:12.45 | 49893 | 68837
5 | 15:17.63 | 3:16.18 | 68838 | 83555
6 | 18:34.06 | 3:40.60 | 83556 | 100115
7 | 22:14.66 | 5:13.25 | 100116 | 123615
8 | 27:28.16 | 5:47.31 | 123616 | 149671
9 | 33:15.47 | 4:23.52 | 149672 | 169448
10 | 37:39.24 | 2:59.23 | 169449 | 182896
11 | 40:38.47 | 3:47.60 | 182897 | 199981
12 | 44:26.32 | 4:43.39 | 199982 | 221245


Range status and errors

Selected range

Filename F:\alexbras\2009 - George Thorogood & The Destroyers - The Dirty Dozen (EU Capitol 509996 84082 20)\George Thorogood And The Destroyers - The Dirty Dozen.wav

Peak level 96.6 %
Extraction speed 4.0 X
Range quality 100.0 %
Test CRC F97731E9
Copy CRC F97731E9
Copy OK

No errors occurred


AccurateRip summary

Track 1 accurately ripped (confidence 15) [E9CE05C7] (AR v2)
Track 2 accurately ripped (confidence 15) [324B7319] (AR v2)
Track 3 accurately ripped (confidence 15) [D253F3D8] (AR v2)
Track 4 accurately ripped (confidence 15) [B4F0EDC3] (AR v2)
Track 5 accurately ripped (confidence 15) [3A3E8DF4] (AR v2)
Track 6 accurately ripped (confidence 15) [AC565FB4] (AR v2)
Track 7 accurately ripped (confidence 16) [A6299135] (AR v2)
Track 8 accurately ripped (confidence 15) [CBD3BA2D] (AR v2)
Track 9 accurately ripped (confidence 15) [579A645A] (AR v2)
Track 10 accurately ripped (confidence 15) [7219AFA2] (AR v2)
Track 11 accurately ripped (confidence 15) [C2B93303] (AR v2)
Track 12 accurately ripped (confidence 15) [86F79525] (AR v2)

All tracks accurately ripped

End of status report

==== Log checksum EDCBF28BDA7D794FD2654060A5A81E4151B281E9E8D3F7FE1AF1D5735727B86C ====

foobar2000 1.3.16 / Dynamic Range Meter 1.1.1
log date: 2017-10-16 19:13:44

––––––––––––––––––––––––––––––––––––––––
Analyzed: George Thorogood And The Destroyers / The Dirty Dozen
––––––––––––––––––––––––––––––––––––––––

DR Peak RMS Duration Track
––––––––––––––––––––––––––––––––––––––––
DR9 -0.30 dB -10.61 dB 3:42 01-Tail Dragger
DR9 -0.30 dB -11.29 dB 4:20 02-Drop Down Mama
DR9 -0.30 dB -9.89 dB 3:03 03-Run Myself Out Of Town
DR8 -0.30 dB -9.32 dB 4:13 04-Born Lover
DR10 -0.30 dB -10.81 dB 3:16 05-Twenty Dollar Gig
DR8 -0.30 dB -9.64 dB 3:41 06-Let Me Pass
DR7 -0.32 dB -8.05 dB 5:13 07-Howlin' For My Baby
DR9 -0.30 dB -9.83 dB 5:47 08-Highway 49
DR9 -0.30 dB -9.76 dB 4:24 09-Six Days On The Road
DR8 -0.30 dB -10.32 dB 2:59 10-Treat Her Right
DR8 -0.30 dB -8.92 dB 3:48 11-Hello Little Girl
DR9 -0.30 dB -10.87 dB 4:44 12-Blue Highway
––––––––––––––––––––––––––––––––––––––––

Number of tracks: 12
Official DR value: DR9

Samplerate: 44100 Hz
Channels: 2
Bits per sample: 16
Bitrate: 973 kbps
Codec: FLAC
================================================================================

[CUETools log; Date: 16.10.2017 19:13:02; Version: 2.1.5]
[CTDB TOCID: wduMJOG7Q8oF0zTPT3WcxadAsqQ-] found.
Track | CTDB Status
1 | (58/58) Accurately ripped
2 | (57/58) Accurately ripped
3 | (58/58) Accurately ripped
4 | (58/58) Accurately ripped
5 | (57/58) Accurately ripped
6 | (57/58) Accurately ripped
7 | (58/58) Accurately ripped
8 | (58/58) Accurately ripped
9 | (57/58) Accurately ripped
10 | (58/58) Accurately ripped
11 | (58/58) Accurately ripped
12 | (57/58) Accurately ripped
[AccurateRip ID: 001564be-00c981ad-a50b850c] found.
Track [ CRC | V2 ] Status
01 [6ef05dbf|e9ce05c7] (13+15/79) Accurately ripped
02 [67547a34|324b7319] (13+15/81) Accurately ripped
03 [eff2544e|d253f3d8] (13+15/81) Accurately ripped
04 [49db8761|b4f0edc3] (13+15/81) Accurately ripped
05 [be1a2796|3a3e8df4] (13+15/81) Accurately ripped
06 [62210291|ac565fb4] (13+15/81) Accurately ripped
07 [d95c26a7|a6299135] (13+16/81) Accurately ripped
08 [71d24789|cbd3ba2d] (13+15/78) Accurately ripped
09 [5fc2391a|579a645a] (13+15/77) Accurately ripped
10 [47f50e73|7219afa2] (13+15/78) Accurately ripped
11 [7e1c63fb|c2b93303] (13+15/78) Accurately ripped
12 [871ab085|86f79525] (13+15/78) Accurately ripped
Offsetted by 6:
01 [a6cdd6ec] (19/79) Accurately ripped
02 [db8b6220] (19/81) Accurately ripped
03 [939d2355] (19/81) Accurately ripped
04 [28dda696] (19/81) Accurately ripped
05 [f9186766] (19/81) Accurately ripped
06 [c2db6f4a] (19/81) Accurately ripped
07 [98acac93] (19/81) Accurately ripped
08 [591b3fb2] (19/78) Accurately ripped
09 [c4623192] (19/77) Accurately ripped
10 [0942e201] (19/78) Accurately ripped
11 [a262f8d8] (19/78) Accurately ripped
12 [10e6927f] (19/78) Accurately ripped
Offsetted by -30:
01 [a6fc82e6] (00/79) No match (V2 was not tested)
02 [5f85ea74] (02/81) Accurately ripped
03 [bd6f4882] (02/81) Accurately ripped
04 [1a8eca3a] (02/81) Accurately ripped
05 [64cc38e4] (02/81) Accurately ripped
06 [7e75e1ec] (02/81) Accurately ripped
07 [1cc9890b] (02/81) Accurately ripped
08 [ee6ef4f9] (00/78) No match (V2 was not tested)
09 [2b1185e5] (00/77) No match (V2 was not tested)
10 [8489405e] (00/78) No match (V2 was not tested)
11 [c89b7aa1] (00/78) No match (V2 was not tested)
12 [db052473] (00/78) No match (V2 was not tested)
Offsetted by -6:
01 [f5106a13] (00/79) No match (V2 was not tested)
02 [0fd088a0] (00/81) No match (V2 was not tested)
03 [4c41853e] (00/81) No match (V2 was not tested)
04 [76ec6284] (00/81) No match (V2 was not tested)
05 [7634f532] (00/81) No match (V2 was not tested)
06 [016895c8] (00/81) No match (V2 was not tested)
07 [1a0ba0bb] (00/81) No match (V2 was not tested)
08 [90168aef] (00/78) No match (V2 was not tested)
09 [0c5c0a2f] (00/77) No match (V2 was not tested)
10 [35d1e2c1] (00/78) No match (V2 was not tested)
11 [59d3cf0a] (00/78) No match (V2 was not tested)
12 [37f24cb7] (00/78) No match (V2 was not tested)

Track Peak [ CRC32 ] [W/O NULL] [ LOG ]
– 96,6 [F97731E9] [049A443B] CRC32
01 96,6 [F951CAFC] [5340ADF4]
02 96,6 [F9892A39] [066CDA69]
03 96,6 [FA92394B] [FED62ABE]
04 96,6 [40F59A0E] [E499D495]
05 96,6 [583A3AAB] [C7E337D1]
06 96,6 [7BB280E7] [307509EB]
07 96,3 [819EB5BC] [919841AA]
08 96,6 [A70A25BD] [7172C529]
09 96,6 [9E28274C] [74C4898D]
10 96,6 [A5EDC64C] [14E17E5F]
11 96,6 [CED42FE2] [E9B0BAFF]
12 96,6 [5E8AA804] [C32753EE]

George Thorogood And The Destroyers - The Dirty Dozen (2009) Repost / New Rip

All thanks go to alex1248

>>> George Thorogood in my Blog <<<

Download from icerbox.com: