Subcategories

George Crumb - Vox Balaenae / Daniel Kellogg - Divinum Mysterium (Eighth Blackbird)

Posted By: siouxsie55
George Crumb - Vox Balaenae / Daniel Kellogg - Divinum Mysterium (Eighth Blackbird)

George Crumb - Vox Balaenae / Daniel Kellogg - Divinum Mysterium (Eighth Blackbird)
EAC | FLAC+CUE+LOG | Covers | 1 CD | 177 MB | Filesonic
XX Century Classical | Released: 2004 | Label: Cedille Records

After initially being influenced by Anton Webern, Crumb became interested in exploring unusual timbres. He often asks for instruments to be played in unusual ways and several of his pieces are written for electrically amplified instruments. Another of Crumb's best known works are the four books of Makrokosmos. The first two books (1972, 1973), for solo piano, make extensive use of string piano techniques; the third, known as Music for a Summer Evening (1974), is for two pianos and percussion; the fourth, Celestial Mechanics (1979), was written for piano four-hands. The title Makrokosmos alludes to Mikrokosmos, the six books of piano pieces by Béla Bartók; like Bartók's work, Makrokosmos is a series of short character pieces.
On this disk also Divinum Mysterium by Daniel Kellogg.

Tracklist

01. Daniel Kellogg - Divinum Mysterium - Prelude 01:03
02. Daniel Kellogg - Divinum Mysterium - I Beginnings 05:15
03. Daniel Kellogg - Divinum Mysterium - II The Spirit of God Moved Upon the Face of the Waters 09:11
04. Daniel Kellogg - Divinum Mysterium - III Light 03:35
05. Daniel Kellogg - Divinum Mysterium - IV Rest 06:27
06. Daniel Kellogg - Divinum Mysterium - V Rejoicing 08:11
07. George Crumb - Vox Balaenae - Vocalize (for the beginning of time) 04:32
08. George Crumb - Vox Balaenae - Sea Theme 02:00
09. George Crumb - Vox Balaenae - Archeozic 01:26
10. George Crumb - Vox Balaenae - Proterozoic 02:13
11. George Crumb - Vox Balaenae - Paleozoic 01:17
12. George Crumb - Vox Balaenae - Mesozoic 01:15
13. George Crumb - Vox Balaenae - Cenozoic 02:28
14. George Crumb - Vox Balaenae - Sea-Nocturne (for the end of time) 07:14


Exact Audio Copy V1.0 beta 1 from 15. November 2010

EAC extraction logfile from 25. March 2011, 14:05

Eighth Blackbird / Beginnings

Used drive : TSSTcorpCDDVDW SH-S223C Adapter: 1 ID: 1

Read mode : Secure
Utilize accurate stream : Yes
Defeat audio cache : Yes
Make use of C2 pointers : No

Read offset correction : 697
Overread into Lead-In and Lead-Out : No
Fill up missing offset samples with silence : Yes
Delete leading and trailing silent blocks : No
Null samples used in CRC calculations : Yes
Used interface : Native Win32 interface for Win NT & 2000

Used output format : User Defined Encoder
Selected bitrate : 896 kBit/s
Quality : High
Add ID3 tag : No
Command line compressor : C:\Program Files (x86)\Exact Audio Copy\FLAC\FLAC.EXE
Additional command line options : -6 -V -T "ARTIST=%a" -T "TITLE=%t" -T "ALBUM=%g" -T "DATE=%y" -T "TRACKNUMBER=%n" -T "GENRE=%m" -T "COMMENT=%e" %j–picture="%i"%j %s -o %d


TOC of the extracted CD

Track | Start | Length | Start sector | End sector
––––––––––––––––––––––––––––-
1 | 0:00.00 | 1:03.30 | 0 | 4754
2 | 1:03.30 | 5:15.27 | 4755 | 28406
3 | 6:18.57 | 9:11.40 | 28407 | 69771
4 | 15:30.22 | 3:35.72 | 69772 | 85968
5 | 19:06.19 | 6:27.61 | 85969 | 115054
6 | 25:34.05 | 8:11.48 | 115055 | 151927
7 | 33:45.53 | 4:32.48 | 151928 | 172375
8 | 38:18.26 | 2:00.46 | 172376 | 181421
9 | 40:18.72 | 1:26.69 | 181422 | 187940
10 | 41:45.66 | 2:13.35 | 187941 | 197950
11 | 43:59.26 | 1:17.16 | 197951 | 203741
12 | 45:16.42 | 1:15.53 | 203742 | 209419
13 | 46:32.20 | 2:28.33 | 209420 | 220552
14 | 49:00.53 | 7:14.24 | 220553 | 253126


Range status and errors

Selected range

Filename E:\digileen\George Crumb + Daniel Kellogg\Beginnings\Eighth Blackbird - Beginnings.wav

Peak level 98.6 %
Extraction speed 0.4 X
Range quality 100.0 %
Test CRC 2C703CF4
Copy CRC 2C703CF4
Copy OK

No errors occurred


AccurateRip summary

Track 1 not present in database
Track 2 not present in database
Track 3 not present in database
Track 4 not present in database
Track 5 not present in database
Track 6 not present in database
Track 7 not present in database
Track 8 not present in database
Track 9 not present in database
Track 10 not present in database
Track 11 not present in database
Track 12 not present in database
Track 13 not present in database
Track 14 not present in database

None of the tracks are present in the AccurateRip database

End of status report

==== Log checksum 9EFEB1003810F4F1A136F42B2CB6F8275854BAE45FF394377352FABE49D72221 ====