Subcategories

George Benson - The George Benson Collection (1981) [Japanese Edition WPCR-13065]

Posted By: jclane
George Benson - The George Benson Collection (1981) [Japanese Edition WPCR-13065]

George Benson - The George Benson Collection (1981)
EAC Rip | FLAC Image + Cue + Log => 462 MB | MP3 CBR @320 kbps => 170 MB | Full scans => 86.2 MB
Label: Warner Bros. Japan | Catalog.#: WPCR-13065 | Genre: Contemporary Jazz

In order to produce what it thought would be a definitive two-LP retrospective on George Benson, Warner Bros. raided not only its own archives but also those of A&M, Arista, and CTI. For added sales appeal, Warners inserted two new recordings, one of which ("Turn Your Love Around") became another huge hit single, rising to number five on the pop charts. Today, Collection remains the most inclusive Benson sampler, though far from a definitive one due in part to the scarcity of instrumentals. Of course, the big Warner Bros. vocal hits are here ("This Masquerade," "On Broadway," "Give Me the Night"), plus an artistic triumph like "Moody's Mood," but only one WB instrumental ("Breezin'") can be heard. From Arista, it's strictly pop: "The Greatest Love of All" and the duet with Aretha Franklin, "Love All the Hurt Away." The A&M choices "Last Train to Clarksville" and "Here Comes the Sun" could have been better, but the two CTIs, "White Rabbit" and the great "Cast Your Fate to the Wind," are excellent representatives. Unfortunately, when it came time to squeeze Collection onto one CD, Warners in its corporate wisdom chose to delete one cut – and wouldn't you know, it was "Cast Your Fate"! In other words, hunt for the LPs.

Track Listing

01. Turn Your Love Around - 03:52
02. Love All The Hurt Away - 04:10
03. Give Me The Night - 03:43
04. Never Give Up On A Good Thing - 04:06
05. On Broadway - 05:18
06. White Rabbit - 06:58
07. This Masquerade - 03:19
08. Love Ballad - 04:17
09. Nature Boy - 04:20
10. Last Train To Clarksville - 05:01
11. Livin' Inside Your Love - 06:38
12. Here Comes The Sun - 02:33
13. Breezin' - 05:39
14. Moody's Mood - 03:26
15. We Got The Love - 03:28
16. The Greatest Love Of All - 05:35


Exact Audio Copy V1.0 beta 3 from 29. August 2011

Отчёт EAC об извлечении, выполненном 27. апреля 2012, 10:08

George Benson / The George Benson Collection

Дисковод: SONY CD-RW CRX230ED Adapter: 0 ID: 1

Режим чтения : Достоверность
Использование точного потока : Да
Отключение кэша аудио : Да
Использование указателей C2 : Нет

Коррекция смещения при чтении : 6
Способность читать области Lead-in и Lead-out : Нет
Заполнение пропущенных сэмплов тишиной : Да
Удаление блоков с тишиной в начале и конце : Нет
При вычислениях CRC использовались нулевые сэмплы : Да
Интерфейс : Встроенный Win32-интерфейс для Win NT/2000

Выходной формат : Внутренние WAV-операции
Формат сэмплов : 44.100 Гц; 16 бит; стерео

TOC извлечённого CD

Трек | Старт | Длительность | Начальный сектор | Конечный сектор
––––––––––––––––––––––––––––––––––-
1 | 0:00.00 | 3:52.00 | 0 | 17399
2 | 3:52.00 | 4:10.03 | 17400 | 36152
3 | 8:02.03 | 3:43.12 | 36153 | 52889
4 | 11:45.15 | 4:06.20 | 52890 | 71359
5 | 15:51.35 | 5:18.08 | 71360 | 95217
6 | 21:09.43 | 6:58.57 | 95218 | 126624
7 | 28:08.25 | 3:19.33 | 126625 | 141582
8 | 31:27.58 | 4:17.30 | 141583 | 160887
9 | 35:45.13 | 4:20.52 | 160888 | 180439
10 | 40:05.65 | 5:01.23 | 180440 | 203037
11 | 45:07.13 | 6:38.60 | 203038 | 232947
12 | 51:45.73 | 2:33.72 | 232948 | 244494
13 | 54:19.70 | 5:39.40 | 244495 | 269959
14 | 59:59.35 | 3:26.58 | 269960 | 285467
15 | 63:26.18 | 3:28.32 | 285468 | 301099
16 | 66:54.50 | 5:35.13 | 301100 | 326237

Характеристики диапазона извлечения и сообщения об ошибках

Выбранный диапазон

Имя файла E:\MusicCD\Torrent\George Benson - The George Benson Collection\George Benson - The George Benson Collection.wav

Пиковый уровень 100.0 %
Скорость извлечения 9.1 X
Качество диапазона 99.9 %
CRC теста 2AA48D1B
CRC копии 2AA48D1B
Копирование… OK

Ошибок не произошло

AccurateRip: сводка

Трек 1 : извлечено точно (доверие 1) [746D4037] (AR v1)
Трек 2 : извлечено точно (доверие 1) [18CC197D] (AR v1)
Трек 3 : извлечено точно (доверие 1) [1C6EF814] (AR v1)
Трек 4 : извлечено точно (доверие 1) [F866DB39] (AR v1)
Трек 5 : извлечено точно (доверие 1) [8AB8DD96] (AR v1)
Трек 6 : извлечено точно (доверие 1) [0A2A9E67] (AR v1)
Трек 7 : извлечено точно (доверие 1) [F6840782] (AR v1)
Трек 8 : извлечено точно (доверие 1) [F6E9C70B] (AR v1)
Трек 9 : извлечено точно (доверие 1) [8DBAC6BF] (AR v1)
Трек 10 : извлечено точно (доверие 1) [D88C2E38] (AR v1)
Трек 11 : извлечено точно (доверие 1) [410B9489] (AR v1)
Трек 12 : извлечено точно (доверие 1) [0D02B45E] (AR v1)
Трек 13 : извлечено точно (доверие 1) [F4BB465E] (AR v1)
Трек 14 : извлечено точно (доверие 1) [45D2EFFF] (AR v1)
Трек 15 : извлечено точно (доверие 1) [DF7F79DA] (AR v1)
Трек 16 : извлечено точно (доверие 1) [985BFE85] (AR v1)

Все треки извлечены точно

Конец отчёта

==== Контрольная сумма отчёта 3AEF742B53868FB01A83D938336268F6CE08A330CC7AE8C61C93DDD8D39D0227 ====


[CUETools log; Date: 8/26/2013 8:45:11 PM; Version: 2.1.4]
[AccurateRip ID: 0029e5cc-01fa6386-db10fd10] found.
Track [ CRC | V2 ] Status
01 [746d4037|862c9303] (0+0/0) No match
02 [18cc197d|9a1a1c83] (0+0/0) No match
03 [1c6ef814|8703064b] (0+0/0) No match
04 [f866db39|07e5042b] (0+0/0) No match
05 [8ab8dd96|eef45744] (0+0/0) No match
06 [0a2a9e67|4c09d470] (0+0/0) No match
07 [f6840782|22ca9521] (0+0/0) No match
08 [f6e9c70b|49012f42] (0+0/0) No match
09 [8dbac6bf|b6adb377] (0+0/0) No match
10 [d88c2e38|3c643ca8] (0+0/0) No match
11 [410b9489|d6370a3a] (0+0/0) No match
12 [0d02b45e|fd24d916] (0+0/0) No match
13 [f4bb465e|5ee544a1] (0+0/0) No match
14 [45d2efff|01d6a63b] (0+0/0) No match
15 [df7f79da|60f93177] (0+0/0) No match
16 [985bfe85|4712920b] (0+0/0) No match

Track Peak [ CRC32 ] [W/O NULL] [ LOG ]
– 100.0 [2AA48D1B] [D05D55DD] CRC32
01 93.8 [12E08891] [8F792E3E]
02 58.6 [91401E89] [03FFDBD5]
03 90.0 [3934446C] [8434BB07]
04 83.8 [6AB2CD20] [2E5ADE10]
05 99.9 [3A8444A5] [ADBEA1EA]
06 73.1 [A59FC6BF] [9F079829]
07 82.5 [FF79713D] [D1AAEE36]
08 82.7 [6C5443D4] [71FEF28C]
09 100.0 [49F40AB8] [F19CA2FB]
10 92.1 [8B24F427] [A3304D3D]
11 83.6 [73C0A5A8] [3EF57E54]
12 54.8 [15C179B5] [5AD1A5A2]
13 73.4 [A033856D] [A359634D]
14 76.6 [77803C06] [D3540A07]
15 88.0 [D60A2FFF] [6D40A38A]
16 56.2 [C29E9F12] [3F7517D2]


––––––––––––––––––––

Released Date: 1981
Format: CD, Compilation
Length: 1:12:29

George Benson - The George Benson Collection (1981) [Japanese Edition WPCR-13065]
George Benson - The George Benson Collection (1981) [Japanese Edition WPCR-13065]

Many thanks to squirr

If you have any questions about this publication, please send me a private message.