Subcategories

George Howard - A Home Far Away (1994) {GRP 9780}

Posted By: tiburon
George Howard - A Home Far Away (1994) {GRP 9780}

George Howard - A Home Far Away (1994) {GRP 9780}
EAC 1.0b1 | FLAC tracks level 8 | Cue+Log+M3u | 346MB +5% Recovery
MP3 CBR 320 Kbps | 149MB + 5% Recovery
Genre: Jazz-Funk, Smooth Jazz

George Howard was one of the most talented artist ever and he knew what we wanted. A Home Far Away is one his of best. From the first jam, Miracle, to You Can Make This Story Right and Renewal, this is classic George Howard. This is one of those rare CDs that is played from beginning to end.
Tracklist
01. Miracle 4:57
02. If You Were Mine 4:55
03. Doria 4:59
04. Until Tomorrow 4:09
05. You Can Make The Story Right 5:00
06. Grover's Groove 5:19
07. No Ordinary Love 4:48
08. A Home Far Away 5:20
09. For Our Fathers 4:42
10. Renewal 4:17

musicians
George Howard - Keil Worth soprano saxophone,lead & background vocals,keyboard & drum programming
Rex Rideout - keyboards and drum programming
Deron Johnson - organ,acoustic piano
Paulinho Da Costa - percussion,congas,bongos
Munyungo Jackson - percussion
Paul Jackson,Jr. - guitar
Rayford Griffin - drums,drum programming
Carl Burnett - guitar
Professor Philmore - steel drums
Joe - background vocals
Mark Ellis Stephens - keyboards
David Williams - rhythm guitar
Kevin Chokan - guitar,acoustic guitar
Dwayne Smith - bass
Alex Brown - background vocals
Debra Parsons - background vocals
Carmen Carter - background vocals
James Williams - background vocals

Produced by George Howard and Rex Rideout


Exact Audio Copy V1.0 beta 1 from 15. November 2010

EAC extraction logfile from 2. July 2011, 10:53

George Howard / A Home Far Away

Used drive : HL-DT-STDVDRAM GH20NS10 Adapter: 2 ID: 1

Read mode : Secure
Utilize accurate stream : Yes
Defeat audio cache : Yes
Make use of C2 pointers : No

Read offset correction : 667
Overread into Lead-In and Lead-Out : No
Fill up missing offset samples with silence : Yes
Delete leading and trailing silent blocks : No
Null samples used in CRC calculations : Yes
Used interface : Native Win32 interface for Win NT & 2000
Gap handling : Appended to previous track

Used output format : User Defined Encoder
Selected bitrate : 1024 kBit/s
Quality : High
Add ID3 tag : No
Command line compressor : C:\Program Files\Exact Audio Copy\Flac\flac.exe
Additional command line options : -8 -V -T "ARTIST=%a" -T "TITLE=%t" -T "ALBUM=%g" -T "DATE=%y" -T "TRACKNUMBER=%n" -T "TOTALTRACKS=%x" -T "GENRE=%m" -T "ALBUMARTIST=%v" -T "ALBUM ARTIST=%v" -T "COMMENT=EAC Secure Mode, Test & Copy, AccurateRip, FLAC -8" %s


TOC of the extracted CD

Track | Start | Length | Start sector | End sector
––––––––––––––––––––––––––––-
1 | 0:00.32 | 4:58.25 | 32 | 22406
2 | 4:58.57 | 4:56.20 | 22407 | 44626
3 | 9:55.02 | 4:59.73 | 44627 | 67124
4 | 14:55.00 | 4:09.27 | 67125 | 85826
5 | 19:04.27 | 5:00.55 | 85827 | 108381
6 | 24:05.07 | 5:19.13 | 108382 | 132319
7 | 29:24.20 | 4:47.72 | 132320 | 153916
8 | 34:12.17 | 5:21.40 | 153917 | 178031
9 | 39:33.57 | 4:42.13 | 178032 | 199194
10 | 44:15.70 | 4:17.50 | 199195 | 218519


Track 1

Filename G:\George Howard - A Home Far Away (1994) {GRP 9780}\01 - Miracle.wav

Pre-gap length 0:00:02.32

Peak level 99.8 %
Extraction speed 4.8 X
Track quality 100.0 %
Test CRC D8BD00AE
Copy CRC D8BD00AE
Accurately ripped (confidence 2) [0D78346E]
Copy OK

Track 2

Filename G:\George Howard - A Home Far Away (1994) {GRP 9780}\02 - If You Were Mine.wav

Pre-gap length 0:00:00.37

Peak level 99.8 %
Extraction speed 5.5 X
Track quality 100.0 %
Test CRC 92100ED3
Copy CRC 92100ED3
Accurately ripped (confidence 2) [52444CEC]
Copy OK

Track 3

Filename G:\George Howard - A Home Far Away (1994) {GRP 9780}\03 - Doria.wav

Pre-gap length 0:00:00.57

Peak level 99.6 %
Extraction speed 6.0 X
Track quality 100.0 %
Test CRC 360922AB
Copy CRC 360922AB
Accurately ripped (confidence 2) [AE6D249D]
Copy OK

Track 4

Filename G:\George Howard - A Home Far Away (1994) {GRP 9780}\04 - Until Tomorrow.wav

Pre-gap length 0:00:00.48

Peak level 100.0 %
Extraction speed 5.1 X
Track quality 99.9 %
Test CRC 781890B2
Copy CRC 781890B2
Accurately ripped (confidence 2) [BF61B851]
Copy OK

Track 5

Filename G:\George Howard - A Home Far Away (1994) {GRP 9780}\05 - You Can Make The Story Right.wav

Pre-gap length 0:00:00.30

Peak level 99.4 %
Extraction speed 6.7 X
Track quality 100.0 %
Test CRC B07A42B3
Copy CRC B07A42B3
Accurately ripped (confidence 2) [F2EBC586]
Copy OK

Track 6

Filename G:\George Howard - A Home Far Away (1994) {GRP 9780}\06 - Grover's Grove.wav

Pre-gap length 0:00:01.00

Peak level 99.5 %
Extraction speed 7.3 X
Track quality 100.0 %
Test CRC 0157F617
Copy CRC 0157F617
Accurately ripped (confidence 2) [873C0C1E]
Copy OK

Track 7

Filename G:\George Howard - A Home Far Away (1994) {GRP 9780}\07 - No Ordinary Love.wav

Pre-gap length 0:00:00.38

Peak level 100.0 %
Extraction speed 7.5 X
Track quality 100.0 %
Test CRC 7544F1B4
Copy CRC 7544F1B4
Accurately ripped (confidence 2) [11163B69]
Copy OK

Track 8

Filename G:\George Howard - A Home Far Away (1994) {GRP 9780}\08 - A Home Far Away.wav

Peak level 97.8 %
Extraction speed 8.0 X
Track quality 100.0 %
Test CRC 9841AC08
Copy CRC 9841AC08
Accurately ripped (confidence 2) [1CCFE65C]
Copy OK

Track 9

Filename G:\George Howard - A Home Far Away (1994) {GRP 9780}\09 - For Our Fathers.wav

Pre-gap length 0:00:01.25

Peak level 94.6 %
Extraction speed 8.0 X
Track quality 100.0 %
Test CRC 45B6039F
Copy CRC 45B6039F
Accurately ripped (confidence 2) [C83F0800]
Copy OK

Track 10

Filename G:\George Howard - A Home Far Away (1994) {GRP 9780}\10 - Renewal.wav

Pre-gap length 0:00:00.18

Peak level 100.0 %
Extraction speed 8.3 X
Track quality 100.0 %
Test CRC 5A6E560F
Copy CRC 5A6E560F
Accurately ripped (confidence 2) [27EE07CB]
Copy OK


All tracks accurately ripped

No errors occurred

End of status report

==== Log checksum 3B100632133DAD0EFF1B9D1BDDD3C4AD0AE9B59B04451CD965316E688E86230A ====

George Howard - A Home Far Away (1994) {GRP 9780}
George Howard - A Home Far Away (1994) {GRP 9780}