Subcategories
Tags
Language
Tags

George Michael - Father Figure [CD-Single] (1987)

Posted By: BlondStyle
George Michael - Father Figure [CD-Single] (1987)

George Michael - Father Figure [CD-Single] (1987)
Pop/Rock, R&B, Electronic | EAC Rip | FLAC, Img+CUE+LOG+Scans (PNG) | 16:08 | 102,78 Mb
Label: Epic (UK & Europe) | Cat.# CD EMU 4 (651321 2) | Released: 1987-12-28
George Michael - Father Figure [CD-Single] (1987)

"Father Figure" is a song by English singer George Michael from his debut studio album, "Faith" (1987). It was released on 28 December 1987 as the album's fourth single by Columbia Records. The song reached #1 on the Billboard Hot 100 and #11 on the UK Singles Chart. Additionally it was a Top 5 hit in Australia, Belgium, Canada, Iceland, Ireland, the Netherlands and Spain.
~Wikipedia

George Michael - Father Figure [CD-Single] (1987)

George Michael - Father Figure [CD-Single] (1987)




Release of this Single: 1987, December, 28 [LP (12") Epic, Cat.# EMU T4, UK]
Release of this CD: 1987 [CD Epic (UK & Europe), Cat.# CD EMU 4 (651321 2), UPC: 5099765132120]
℗© 1987 CBS Records
Distribution CBS Records CBS Disques S.A.
Made in West Germany


Notes:

Tracks 1, 3 Morrison Leahy Music Ltd.
Track 2 Jobete Music (UK) Ltd./Black Bull, recorded live, 1st April 1987
Original Sound Recording made by CBS Records


Credits:

Design – George Michael, Stylorouge
Engineer – Chris Porter (tracks: 1, 3)
Photography By – Brian Aris
Written-By – Stevie Wonder (tracks: 2)
Written-By, Arranged By, Producer – George Michael (tracks: 1, 3)


Tracklist:

01. Father Figure (05:40)
02. Love's In Need Of Love Today (Live - Capital Radio, 1987) (04:45)
03. Father Figure (Instrumental) (05:43)

Exact Audio Copy V0.99 prebeta 4 from 23. January 2008

Отчёт EAC об извлечении, выполненном 26. октября 2009, 20:57

George Michael / Father Figure (Single)

Дисковод: ATAPI DVD DW 8X16X8X16 Adapter: 0 ID: 2

Режим чтения : Достоверность
Использование точного потока : Да
Отключение кэша аудио : Да
Использование указателей C2 : Нет

Коррекция смещения при чтении : 618
Способность читать области Lead-in и Lead-out : Нет
Заполнение пропущенных сэмплов тишиной : Да
Удаление блоков с тишиной в начале и конце : Нет
При вычислениях CRC использовались нулевые сэмплы : Да
Интерфейс : Встроенный Win32-интерфейс для Win NT/2000

Выходной формат : Внутренние WAV-операции
Формат сэмплов : 44.100 Гц; 16 бит; стерео


TOC извлечённого CD

Трек | Старт | Длительность | Начальный сектор | Конечный сектор
––––––––––––––––––––––––––––––––––-
1 | 0:00.33 | 5:40.22 | 33 | 25554
2 | 5:40.55 | 4:45.13 | 25555 | 46942
3 | 10:25.68 | 5:42.40 | 46943 | 72632


Характеристики диапазона извлечения и сообщения об ошибках

Выбранный диапазон

Имя файла C:\Documents and Settings\OEM\Мои документы\Мои аудиозаписи\George Michael - Father Figure (Single).wav

Пиковый уровень 100.0 %
Качество диапазона 100.0 %
CRC копии 1E78CB09
Копирование… OK

Ошибок не произошло


AccurateRip: сводка

Трек 1 точное извлечение (доверие 3) [354E8A52]
Трек 2 точное извлечение (доверие 2) [34FE34D6]
Трек 3 точное извлечение (доверие 3) [A888EA74]

Все треки извлечены точно

Конец отчёта

––––––––––––––––––––––––––––––––––––––––
Analyzed: George Michael / Father Figure (Single)
––––––––––––––––––––––––––––––––––––––––

DR Peak RMS Duration Track
––––––––––––––––––––––––––––––––––––––––
DR15 0.00 dB -19.30 dB 5:40 01-Father Figure
DR13 -2.11 dB -17.88 dB 4:45 02-Love's In Need Of Love Today (Live - Capital Radio, 1987)
DR16 0.00 dB -19.49 dB 5:43 03-Father Figure (Instrumental)
––––––––––––––––––––––––––––––––––––––––

Number of tracks: 3
Official DR value: DR14

Samplerate: 44100 Hz
Channels: 2
Bits per sample: 16
Bitrate: 775 kbps
Codec: FLAC
================================================================================

See also:
Wham! - Make It Big (1984) [Japan, 1st Press]
Various Artists - Red Hot + Dance (1992) [Japan]
Wham! - The Best Of Wham! (If You Were There…) (1997)
George Michael - Flawless (Go ... Mixes [CD Maxi-Single] (2004)
George Michael - Faith (1987) ...l Edition 2CD+DVD, Remastered]

♫~Welcome To My Blog~♫

password: BlondStyle