Subcategories

Geri Halliwell - Schizophonic (1999)

Posted By: popsakov
Geri Halliwell - Schizophonic (1999)

Geri Halliwell - Schizophonic (1999)
EAC Rip | FLAC (Img) + Cue + Log ~ 306 Mb | MP3 CBR320 ~ 99 Mb
Full Scans ~ 59 Mb | 00:40:55 | RAR 5% Recovery
Pop, Dance | EMI #7243 21009 2 7

Schizophonic is the debut studio album by pop singer Geri Halliwell. The album was released after her split from popular girl group the Spice Girls. It produced four singles, all of which saw commercial success in the UK—"Mi Chico Latino", "Lift Me Up" and "Bag It Up" reached number one, while the first single "Look at Me" peaked at number two. As of 2010 the album had sold 3 million copies worldwide. Most reviews for the album were positive to mixed.

If anyone was going to leave the Spice Girls for a solo career, it would have been Geri Halliwell – she was the ringleader, the brassy voice for girl power. Ironically, as the Spice Girls regrouped and found a new voice, Halliwell seemed a little lost. She dove head-first into maturity, dressing in sensible suits and becoming, of all things, a Goodwill Ambassador of the U.N. It was as if Robbie Williams had suddenly turned into Gary Barlow. By the time she cut her debut solo album, Halliwell had realized that it was her spunk and character that made her a pop star – and she explained away the rapid shift in image in the title, Schizophonic, which also is a description of the album's contents. Intent on proving her artistic worth, Halliwell is determined to do it all, from incessantly catchy dance-pop and sweet ballads to Latin-pop and a radio-ready revamp of Madchester psychedelia. Unfortunately, Halliwell doesn't have strong collaborators, who know how to exploit her admittedly limited voice, so much of it falls a little flat musically. There are, however, cuts on Schizophonia sparkle with a gleeful, unabashed love of pop and dance. Invariably, the album soars when it's upbeat – particularly on the self-conscious, silly "Look at Me," "Let Me Love You" and the closer "You're in a Bubble" – since Halliwell sounds better when she's surrounded by glittery, flashy dance beats. Once the tempo slows, her limitations become apparent, unless the song gives her a chance to be a diva, such as the jazzy "Goodbye Kiss." If Schizophonia doesn't work on some levels, it does succeed as a statement of purpose from the newly independent Halliwell. If it sounds awkward at times and brash at others, if it veers between the tacky and tasteful, if it is both good and bad, well, that's her - and you either like it or loathe it.

~ Stephen Thomas Erlewine, All Music

***************

Geri Halliwell - Schizophonic (1999)

Track List:

01. Look At Me [0:04:32.12]
02. Lift Me Up [0:03:52.08]
03. Walkaway [0:05:04.00]
04. Mi Chico Latino [0:03:14.55]
05. Goodnight Kiss [0:04:39.12]
06. Bag It Up [0:03:45.08]
07. Sometime [0:04:05.05]
08. Let Me Love You [0:04:00.65]
09. Someone's Watching Over Me [0:04:15.15]
10. You're In A Bubble [0:03:26.45]

Exact Audio Copy V1.2 from 12. August 2016

EAC extraction logfile from 7. September 2016, 8:23

Geri Halliwell / Schizophonic

Used drive : PLEXTOR DVDR PX-716A Adapter: 1 ID: 0

Read mode : Secure
Utilize accurate stream : Yes
Defeat audio cache : Yes
Make use of C2 pointers : No

Read offset correction : 30
Overread into Lead-In and Lead-Out : No
Fill up missing offset samples with silence : Yes
Delete leading and trailing silent blocks : No
Null samples used in CRC calculations : Yes
Used interface : Native Win32 interface for Win NT & 2000

Used output format : User Defined Encoder
Selected bitrate : 1024 kBit/s
Quality : High
Add ID3 tag : No
Command line compressor : C:\Program Files (x86)\Exact Audio Copy\FLAC\FLAC.EXE
Additional command line options : -6 -V -T "ARTIST=%artist%" -T "TITLE=%title%" -T "ALBUM=%albumtitle%" -T "DATE=%year%" -T "TRACKNUMBER=%tracknr%" -T "GENRE=%genre%" -T "COMMENT=%comment%" -T "BAND=%albuminterpret%" -T "ALBUMARTIST=%albuminterpret%" -T "COMPOSER=%composer%" %haslyrics%–tag-from-file=LYRICS="%lyricsfile%"%haslyrics% -T "DISCNUMBER=%cdnumber%" -T "TOTALDISCS=%totalcds%" -T "TOTALTRACKS=%numtracks%" %hascover%–picture="%coverfile%"%hascover% %source% -o %dest%


TOC of the extracted CD

Track | Start | Length | Start sector | End sector
––––––––––––––––––––––––––––-
1 | 0:00.00 | 4:32.12 | 0 | 20411
2 | 4:32.12 | 3:52.08 | 20412 | 37819
3 | 8:24.20 | 5:04.00 | 37820 | 60619
4 | 13:28.20 | 3:14.55 | 60620 | 75224
5 | 16:43.00 | 4:39.12 | 75225 | 96161
6 | 21:22.12 | 3:45.08 | 96162 | 113044
7 | 25:07.20 | 4:05.05 | 113045 | 131424
8 | 29:12.25 | 4:00.65 | 131425 | 149489
9 | 33:13.15 | 4:15.15 | 149490 | 168629
10 | 37:28.30 | 3:26.45 | 168630 | 184124


Range status and errors

Selected range

Filename C:\mm\Geri Halliwell\1999 - Schizophonic [7243 21009 2 7]\Geri Halliwell - Schizophonic.wav

Peak level 100.0 %
Extraction speed 11.6 X
Range quality 100.0 %
Test CRC 62C391B6
Copy CRC 62C391B6
Copy OK

No errors occurred


AccurateRip summary

Track 1 accurately ripped (confidence 30) [CA2E4332] (AR v2)
Track 2 accurately ripped (confidence 29) [4560C795] (AR v2)
Track 3 accurately ripped (confidence 29) [FCE83347] (AR v2)
Track 4 accurately ripped (confidence 29) [3A59D1CD] (AR v2)
Track 5 accurately ripped (confidence 28) [3F16E38D] (AR v2)
Track 6 accurately ripped (confidence 30) [5445F9C7] (AR v2)
Track 7 accurately ripped (confidence 29) [5BD44B77] (AR v2)
Track 8 accurately ripped (confidence 29) [3EA3F799] (AR v2)
Track 9 accurately ripped (confidence 29) [822FA181] (AR v2)
Track 10 accurately ripped (confidence 29) [16B3CFDE] (AR v2)

All tracks accurately ripped

End of status report

–– CUETools DB Plugin V2.1.6

[CTDB TOCID: xaJY6ITMyK1w1uEyOiMX4FKvJZo-] found
Submit result: xaJY6ITMyK1w1uEyOiMX4FKvJZo- has been confirmed
Track | CTDB Status
1 | ( 34/155) Accurately ripped
2 | ( 34/155) Accurately ripped
3 | ( 34/155) Accurately ripped
4 | ( 34/155) Accurately ripped
5 | ( 34/155) Accurately ripped
6 | ( 34/155) Accurately ripped
7 | ( 34/155) Accurately ripped
8 | ( 34/155) Accurately ripped
9 | ( 34/155) Accurately ripped
10 | ( 34/155) Accurately ripped

[CUETools log; Date: 06.12.2016 14:33:59; Version: 2.1.5]
[CTDB TOCID: xaJY6ITMyK1w1uEyOiMX4FKvJZo-] found.
Track | CTDB Status
1 | ( 38/162) Accurately ripped
2 | ( 38/162) Accurately ripped
3 | ( 38/162) Accurately ripped
4 | ( 38/162) Accurately ripped
5 | ( 38/162) Accurately ripped
6 | ( 38/162) Accurately ripped
7 | ( 38/162) Accurately ripped
8 | ( 38/162) Accurately ripped
9 | ( 38/162) Accurately ripped
10 | ( 38/162) Accurately ripped
[AccurateRip ID: 000fd29a-007de13e-7909970a] found.
Track [ CRC | V2 ] Status
01 [2ae001a1|ca2e4332] (021+031/240) Accurately ripped
02 [d3220716|4560c795] (021+030/243) Accurately ripped
03 [66b4608f|fce83347] (019+030/235) Accurately ripped
04 [c070c18e|3a59d1cd] (020+030/240) Accurately ripped
05 [0096c106|3f16e38d] (020+029/239) Accurately ripped
06 [5aabfd1f|5445f9c7] (020+031/237) Accurately ripped
07 [59a90a2b|5bd44b77] (020+030/239) Accurately ripped
08 [a2d2ec8c|3ea3f799] (020+030/241) Accurately ripped
09 [0477ff6b|822fa181] (020+030/240) Accurately ripped
10 [0e9927f9|16b3cfde] (020+030/239) Accurately ripped

Track Peak [ CRC32 ] [W/O NULL] [ LOG ]
– 100,0 [62C391B6] [13E8F3E7] CRC32
01 99,9 [1A7C1132] [9D2D8240]
02 95,1 [06676C56] [16092998]
03 95,1 [025682F1] [791B7E83]
04 100,0 [95DAD51D] [D95BBF04]
05 96,8 [3163A955] [D9E798DB]
06 99,9 [18586933] [EF009BF7]
07 98,4 [1556EACD] [F3593A4F]
08 98,6 [BF1AEE0F] [FE21891A]
09 98,4 [2CE1791D] [DE7D5D71]
10 98,4 [043FFE53] [E2455757]

Geri Halliwell - Schizophonic (1999)


All thanks go to sergych

>>> My Blog <<<

DOWNLOAD: