Philharmonisches Staatsorchester Mainz & Hermann Baumer - Gernsheim: Symphonies Nos. 2 & 4 (2016)

Posted By: SERTiL
Philharmonisches Staatsorchester Mainz & Hermann Baumer - Gernsheim: Symphonies Nos. 2 & 4 (2016)

Philharmonisches Staatsorchester Mainz & Hermann Baumer - Gernsheim: Symphonies Nos. 2 & 4
Classical | WEB FLAC (tracks) & d. booklet | 60:43 min | 338 MB
Label: CPO | Tracks: 08 | Rls.date: 2016

CPO didn't want listeners to wait any longer! This new release is the second of Gernsheim's symphonies, premiering nos. 3 and 4. One might ask themselves while listening ""Is that Brahms?"" however they would be mistaken. Gernsheim's lyricism and especially the horn sound in his first movement, encourage the listener to appreciate his less well-known symphonies. Of all his symphonies, it is the one that calls for the largest ensemble, with an english horn, bass clarinet, tuba and cymbals in addition to the usual orchestra of the nineteenth century. This work creates the impression of a continuation of the second symphony while mixing relaxed and orchestrally thinned-out passages with energetic tutties.

TRACKLIST
01. Symphony No. 2 in E-Flat Major, Op. 46: I. Allegro tranquillo
02. Symphony No. 2 in E-Flat Major, Op. 46: II. Tarantella. Molto Allegro e con fuoco
03. Symphony No. 2 in E-Flat Major, Op. 46: III. Notturno. Andante
04. Symphony No. 2 in E-Flat Major, Op. 46: IV. Finale. Poco animato e sempre piu
05. Symphony No. 4 in B-Flat Major, Op. 62: I. Allegro
06. Symphony No. 4 in B-Flat Major, Op. 62: II. Andante sostenuto
07. Symphony No. 4 in B-Flat Major, Op. 62: III. Vivace scherzando e con grazia
08. Symphony No. 4 in B-Flat Major, Op. 62: IV. Allegro con spirito e giocoso

PERFORMER: auCDtect Task Manager, ver. 1.6.0 RC1 build 1.6.0.1
Copyright © 2008-2010 y-soft. All rights reserved

ANALYZER: auCDtect: CD records authenticity detector, version 0.8.2
Copyright © 2004 Oleg Berngardt. All rights reserved.
Copyright © 2004 Alexander Djourik. All rights reserved.


FILE: 08. Symphony No. 4 in B-Flat Major, Op. 62 IV. Allegro con spirito e giocoso.flac
Size: 41081982 Hash: 14ED55F5794FD80269A0684B6F323A80 Accuracy: -m0
Conclusion: CDDA 94%
Signature: 9D5EB75519B99EF88593054847A49AD787DAF713
FILE: 07. Symphony No. 4 in B-Flat Major, Op. 62 III. Vivace scherzando e con grazia.flac
Size: 14789518 Hash: 5B4A24EEA317216EB92635321725598C Accuracy: -m0
Conclusion: CDDA 100%
Signature: 245509751BFDC41DE8A86DB966C875AE2505B2AF
FILE: 06. Symphony No. 4 in B-Flat Major, Op. 62 II. Andante sostenuto.flac
Size: 38696916 Hash: CF91A175F6D486845793E97FFF38B9E1 Accuracy: -m0
Conclusion: CDDA 42%
Signature: 9F11D5E200F651688FF336EB3253AB92AFC00FA4
FILE: 05. Symphony No. 4 in B-Flat Major, Op. 62 I. Allegro.flac
Size: 56311497 Hash: 782B908D7C5B3992782F888EFE8FC71E Accuracy: -m0
Conclusion: CDDA 58%
Signature: D4F55A9DA242E5E1EE4961578738E648D123C292
FILE: 04. Symphony No. 2 in E-Flat Major, Op. 46 IV. Finale. Poco animato e sempre piu.flac
Size: 38950516 Hash: 1253DF3953DAABC57EB9B98C21168371 Accuracy: -m0
Conclusion: CDDA 100%
Signature: 3073E7C2FD1614BC7C2FAF3CDFAE1029597E75DE
FILE: 03. Symphony No. 2 in E-Flat Major, Op. 46 III. Notturno. Andante.flac
Size: 28653444 Hash: 679A9C590F4592AEA5B7BA7640CC4796 Accuracy: -m0
Conclusion: MPEG 90%
Signature: 141F7B1FC8B79E98D001578F2BF553D6179B2D67
FILE: 02. Symphony No. 2 in E-Flat Major, Op. 46 II. Tarantella. Molto Allegro e con fuoco.flac
Size: 21153791 Hash: 5D248325A40671F75109C7CADAEBA77A Accuracy: -m0
Conclusion: CDDA 99%
Signature: 741EBDFD956DC7EAEA00FEACC3FA478E1DB2B05F
FILE: 01. Symphony No. 2 in E-Flat Major, Op. 46 I. Allegro tranquillo.flac
Size: 54187763 Hash: 8E33EB51B73E30C6D934D06555171C34 Accuracy: -m0
Conclusion: CDDA 86%
Signature: 1EDCC3CB8EC6CB9B1AA22723ACA1A729183C4B24

foobar2000 1.3.7 / Dynamic Range Meter 1.1.1
log date: 2017-10-18 14:24:18

––––––––––––––––––––––––––––––––––––––––
Analyzed: Philharmonisches Staatsorchester Mainz, Hermann Baumer / Gernsheim: Symphonies Nos. 2 & 4
––––––––––––––––––––––––––––––––––––––––

DR Peak RMS Duration Track
––––––––––––––––––––––––––––––––––––––––
DR12 -0.66 dB -18.10 dB 11:23 01-Symphony No. 2 in E-Flat Major, Op. 46: I. Allegro tranquillo
DR12 -0.67 dB -17.98 dB 4:01 02-Symphony No. 2 in E-Flat Major, Op. 46: II. Tarantella. Molto Allegro e con fuoco
DR14 -2.17 dB -23.92 dB 6:39 03-Symphony No. 2 in E-Flat Major, Op. 46: III. Notturno. Andante
DR12 -0.67 dB -17.15 dB 7:51 04-Symphony No. 2 in E-Flat Major, Op. 46: IV. Finale. Poco animato e sempre piu
DR12 -0.65 dB -17.61 dB 11:30 05-Symphony No. 4 in B-Flat Major, Op. 62: I. Allegro
DR14 -0.65 dB -20.10 dB 8:29 06-Symphony No. 4 in B-Flat Major, Op. 62: II. Andante sostenuto
DR12 -0.67 dB -18.22 dB 2:59 07-Symphony No. 4 in B-Flat Major, Op. 62: III. Vivace scherzando e con grazia
DR11 -0.66 dB -16.27 dB 7:56 08-Symphony No. 4 in B-Flat Major, Op. 62: IV. Allegro con spirito e giocoso
––––––––––––––––––––––––––––––––––––––––

Number of tracks: 8
Official DR value: DR12

Samplerate: 44100 Hz
Channels: 2
Bits per sample: 16
Bitrate: 686 kbps
Codec: FLAC
================================================================================


Philharmonisches Staatsorchester Mainz & Hermann Baumer - Gernsheim: Symphonies Nos. 2 & 4 (2016)


Thanks to the Original customer.