Subcategories

Gianna Nannini - Puzzle (1984)

Posted By: olafweisse
Gianna Nannini - Puzzle (1984)

Gianna Nannini - Puzzle (1984)
EAC Rip | APE, IMG+CUE, LOG | 197 MB | MP3 CBR 320 Kbps | 73 MB | Complete Scans (300 dpi) | 16,9 MB
Pop-Rock, New Wave | Label: Virgin | Catalog Number: 813 387-2 | Time: 34:46 | RAR | RS.com


Tracklisting:

1 Kolossal (3:58)
2 Fotoromanza (4:29)
3 L'urlo (4:09)
4 Siamo Ricchi (4:07)
5 Ciao (4:45)
6 Fiesta (3:51)
7 Ballami (4:47)
8 Se Vai Via (4:43)


Credits:

Hans Bäär: basso, emulator, chitarra
Rüdiger Braune: batteria, simmons
Claudio Cattafesta: chitarre
Claudio Golinelli: basso
Gianna Nannini: voce e cori, pianoforte, elka rhapsody, emulator, violina
Conny Plank: emulator, vocoder, linn drums, harmonizer6 sequencer progr.
Pino Scagliarini: tastiere
Rudy Spinello: chitarre, mandolini
Freddy Steady: batteria

Prodotto da Conny Plank et Gianna Nannini


Exact Audio Copy V0.99 prebeta 4 from 23. January 2008

EAC extraction logfile from 21. August 2008, 12:54

Gianna Nannini / Puzzle

Used drive : PIONEER DVD-RW DVR-K06 Adapter: 0 ID: 1

Read mode : Secure
Utilize accurate stream : Yes
Defeat audio cache : Yes
Make use of C2 pointers : No

Read offset correction : 48
Overread into Lead-In and Lead-Out : No
Fill up missing offset samples with silence : Yes
Delete leading and trailing silent blocks : No
Null samples used in CRC calculations : Yes
Used interface : Native Win32 interface for Win NT & 2000

Used output format : Monkey's Audio Lossless Encoder
Selected bitrate : Normal Lossless Compression
Quality : High
Add ID3 tag : Yes
Command line compressor : C:\Program Files\Monkey's Audio\Monkey's Audio.exe


TOC of the extracted CD

Track | Start | Length | Start sector | End sector
––––––––––––––––––––––––––––-
1 | 0:00.33 | 3:58.12 | 33 | 17894
2 | 3:58.45 | 4:28.63 | 17895 | 38057
3 | 8:27.33 | 4:09.22 | 38058 | 56754
4 | 12:36.55 | 4:07.10 | 56755 | 75289
5 | 16:43.65 | 4:44.43 | 75290 | 96632
6 | 21:28.33 | 3:51.00 | 96633 | 113957
7 | 25:19.33 | 4:46.67 | 113958 | 135474
8 | 30:06.25 | 4:42.70 | 135475 | 156694


Range status and errors

Selected range

Filename \\.PSF\.Home\Desktop\ RIP\Gianna Nannini\Puzzle\Gianna Nannini - Puzzle.wav

Peak level 83.1 %
Range quality 100.0 %
Copy CRC 0281B3BB
Copy OK

No errors occurred


AccurateRip summary

Track 1 not present in database
Track 2 not present in database
Track 3 not present in database
Track 4 not present in database
Track 5 not present in database
Track 6 not present in database
Track 7 not present in database
Track 8 not present in database

None of the tracks are present in the AccurateRip database

End of status report





Gianna Nannini on AvaxHome:

California (1979)
G. N. (1981)
Latin Lover (1982)
Puzzle (1984)
Tutto Live (1985)
Profumo (1986)
Malafemmina (1988)
Scandalo (1990)
X Forza E X Amore (1993)
Dispetto (1995)
Grazie (2006)
GiannaBest (2007) (MP3 only!)
Giannadream : Solo I Sogni Sono Veri (2009)