Subcategories

Giant X - I (2013)

Posted By: v3122
Giant X - I (2013)

Giant X - I (2013)
EAC Rip | Flac(Image) + Cue + Log & iPod M4A(Tracks)
Heavy Metal | SPV 260732 CD | ~ 376 or 378 Mb | Scans Included

GIANT X, the new band formed by RUNNING WILD members Rolf Kasparek and Peter J. Jordan, will release its debut album, "I", on January 18 in Germany, January 21 in the rest of Europe and January 22 in USA/Canada via Steamhammer/SPV.

This sensational collaboration was sparked by the unexpectedly euphoric reactions from all over the world to the Kasparek/Jordan composition "Burning Wheels" (off EMI's rock/metal album), which featured Kasparek on vocals. Encouraged by those positive responses, Jordan and Kasparek decided to co-compose more tracks and offer them to interested record companies under the band name of GIANT X. They decided on the Hanover label Steamhammer/SPV, which previously released the latest RUNNING WILD opus, "Shadowmaker".

Giant X - I (2013)

"GIANT X have a broader musical range which allows Rolf and myself to present ourselves from a totally different side," Jordan explains. "Our material consists of consciously multi-layered numbers, more in the tradition of KISS, QUEEN, THIN LIZZY, VAN HALEN but also BILLY TALENT. In other words: rock music in the tradition of the Seventies, Eighties and Nineties — our shared musical roots. The main thing for us was that people would be able hear the lightness and spontaneity of our collaboration."

"I" contains a total of 13 brand new songs, all of them penned by Jordan and Kasparek. The recording was produced and mixed by Jordan, with lots of support from Kasparek and RUNNING WILD's live mixer Niki Nowy.

No plans for GIANT X's future have yet been made, but according to Jordan and Kasparek, they are happy to "take things as they come. We don't rule anything out at this point."

~ blabbermouth
Giant X - I (2013):

Giant X - I (2013)

Tracklist:

1. The Rise Of The Giant X (Intro) (0:34)
2. On A Blind Flight (3:30)
3. Dont Quit Till Tomorrow (3:57)
4. Badland Blues (4:32)
5. Now Or Never (3:37)
6. Nameless Heroes (4:17)
7. Go 4 It (3:42)
8. The Count (3:23)
9. Rough Ride (4:24)
10. Friendly Fire (3:27)
11. Lets Dance (2:58)
12. Soulsurvivors (3:55)
13. R.O.C.K (4:06)

Line Up:

Rolf Kasparek (Vocals, Guitars)
Peter J. Jordan (Guitars, Bass)

Exact Audio Copy V1.0 beta 2 from 29. April 2011

EAC extraction logfile from 6. February 2013, 19:41

Giant X / I

Used drive : HL-DT-STDVDRAM GH24LS70 Adapter: 1 ID: 1

Read mode : Secure
Utilize accurate stream : Yes
Defeat audio cache : Yes
Make use of C2 pointers : No

Read offset correction : 667
Overread into Lead-In and Lead-Out : No
Fill up missing offset samples with silence : Yes
Delete leading and trailing silent blocks : No
Null samples used in CRC calculations : Yes
Used interface : Native Win32 interface for Win NT & 2000

Used output format : User Defined Encoder
Selected bitrate : 896 kBit/s
Quality : High
Add ID3 tag : No
Command line compressor : C:\Program Files\Exact Audio Copy\FLAC\FLAC.EXE
Additional command line options : -V -8 -T "Date=%year%" -T "Genre=%genre%" %source%


TOC of the extracted CD

Track | Start | Length | Start sector | End sector
––––––––––––––––––––––––––––-
1 | 0:00.00 | 0:34.20 | 0 | 2569
2 | 0:34.20 | 3:30.37 | 2570 | 18356
3 | 4:04.57 | 3:57.68 | 18357 | 36199
4 | 8:02.50 | 4:32.27 | 36200 | 56626
5 | 12:35.02 | 3:37.69 | 56627 | 72970
6 | 16:12.71 | 4:17.46 | 72971 | 92291
7 | 20:30.42 | 3:42.68 | 92292 | 109009
8 | 24:13.35 | 3:23.44 | 109010 | 124278
9 | 27:37.04 | 4:24.19 | 124279 | 144097
10 | 32:01.23 | 3:27.14 | 144098 | 159636
11 | 35:28.37 | 2:58.38 | 159637 | 173024
12 | 38:27.00 | 3:55.09 | 173025 | 190658
13 | 42:22.09 | 4:06.39 | 190659 | 209147


Range status and errors

Selected range

Filename E:\Giant X - I (13)\I.wav

Peak level 98.4 %
Extraction speed 1.7 X
Range quality 100.0 %
Copy CRC BF125D56
Copy OK

No errors occurred


AccurateRip summary

Track 1 not present in database
Track 2 not present in database
Track 3 not present in database
Track 4 not present in database
Track 5 not present in database
Track 6 not present in database
Track 7 not present in database
Track 8 not present in database
Track 9 not present in database
Track 10 not present in database
Track 11 not present in database
Track 12 not present in database
Track 13 not present in database

None of the tracks are present in the AccurateRip database

End of status report

==== Log checksum 2D6D298DC62E41295BDF98F10A387F624CA26711733136A72548EA22A32DE1A3 ====

foobar2000 1.1.18 / Dynamic Range Meter 1.1.1
log date: 2013-02-11 07:19:37

––––––––––––––––––––––––––––––––––––––––
Analyzed: I / I
––––––––––––––––––––––––––––––––––––––––

DR Peak RMS Duration Track
––––––––––––––––––––––––––––––––––––––––
DR2 -3.12 dB -21.52 dB 0:34 01-The Rise Of The Giant X Intro
DR5 -0.31 dB -5.87 dB 3:30 02-On A Blind Flight
DR5 -0.31 dB -5.87 dB 3:58 03-Dont Quit Till Tomorrow
DR5 -0.31 dB -6.38 dB 4:32 04-Badland Blues
DR5 -0.31 dB -5.96 dB 3:38 05-Now Or Never
DR5 -0.31 dB -7.07 dB 4:18 06-Nameless Heroes
DR5 -0.31 dB -6.09 dB 3:43 07-Go 4 It
DR6 -0.31 dB -6.78 dB 3:24 08-The Count
DR5 -0.31 dB -6.99 dB 4:24 09-Rough Ride
DR5 -0.31 dB -6.39 dB 3:27 10-Friendly Fire
DR5 -0.31 dB -6.17 dB 2:59 11-Lets Dance
DR5 -0.31 dB -6.21 dB 3:55 12-Soulsurvivors
DR5 -0.31 dB -6.21 dB 4:07 13-R.O.C.K
––––––––––––––––––––––––––––––––––––––––

Number of tracks: 13
Official DR value: DR5

Samplerate: 44100 Hz
Channels: 2
Bits per sample: 16
Bitrate: 1086 kbps
Codec: FLAC

Giant X - I (2013)

All thanks go to GriffonNest

Download Giant X - I (2013):