Subcategories

Gidon Kremer - J.S. Bach: The Sonatas and Partitas for Violin Solo (2005) 2CD

Posted By: Designol
Gidon Kremer - J.S. Bach: The Sonatas and Partitas for Violin Solo (2005) 2CD

Gidon Kremer - J.S. Bach: The Sonatas and Partitas for Violin Solo (2005) 2CD
EAC | FLAC | Image (Cue&Log) ~ 726 Mb (incl 5%) | Mp3 (CBR320) ~ 363 Mb (incl 5%) | Scans included
Genre: Classical | Label: ECM | # ECM New Series 1926/27, 476 7291 | Time: 02:11:18

Gidon Kremer has again recorded the Sonatas and Partitas for Solo Violin of Bach and while his facility and technical grace are intact, in this recording he appears to have been deeply influenced by his time with the moderns (Adams, Pärt, Schnittke, Piazzola, Glass, et al). For this listener it seems that studying and performing these contemporary composers' manipulation of sound and instrumental scope has enriched Kremer's thought about the perfection of Bach.

Not everyone will agree with Kremer's approach to these works on this new recording, but for those who know Bach's solo violin pieces there are pleasures in store. Remaining technically suave and with a luxuriant tone, Kremer seems to be communicating with the psychological Bach, offering different tempi and more soulful approaches than those of his colleagues. The results are mesmerizing.

The sonics of this release are impeccable: the soloist is immediately in the room with the listener. This recording is a must for those who have followed Kremer's impressive career and for those who wish to venture outside the norm for a fresh approach to the wonders of Bach's genius. Highly recommended.

Review by Grady Harp, Amazon.com

Never one to shy away from challenges, Gidon Kremer often confronts them in his recordings of new or unusual music, yet his expression is often under the cover of novelty, or shared with other players. In this 2005 recording of Bach's sonatas and partitas for violin solo, however, the challenges are all internal, as Kremer faces the music nakedly and directly, without recourse to cohorts, gimmicks, clever arrangements, or anything other than the notes on the page. This is, of course, the greatest challenge any musician faces in playing Bach's solo works, and Kremer's interaction with the music is certainly exposed, if not always to the listener's delight. Kremer's tone and expression are chimerical, unpredictable, and sometimes rawly emphasized, and it is sometimes hard to tell if he has deliberately marked out all his dynamics and bowings – as if parsing all those running sixteenth notes into motives and cells – or if he has merely left such decisions to the moment's inspiration and spontaneously poured himself out in wave after wave of short, hiccuping phrases and exaggerated gestures. It takes something of an analytical mind to appreciate the finely worked details and studied nuances in his performances; otherwise, listeners who like smoother interpretations will feel its bumpy ride all the way and find his playing more annoying than appealing. ECM's sound quality is topnotch.

Review by Blair Sanderson, Allmusic.com

Gidon Kremer - J.S. Bach: The Sonatas and Partitas for Violin Solo (2005) 2CD



Gidon Kremer - J.S. Bach: The Sonatas and Partitas for Violin Solo (2005) 2CD



Tracklist:

CD1:

01. Sonata No.1 in G minor, BWV 1001 - 1. Adagio (04:05)
02. Sonata No.1 in G minor, BWV 1001 - 2. Fuga. Allegro (04:50)
03. Sonata No.1 in G minor, BWV 1001 - 3. Siciliana (03:04)
04. Sonata No.1 in G minor, BWV 1001 - 4. Presto (03:30)

05. Partita No.1 in B minor, BWV 1002 - 1. Allemanda (04:37)
06. Partita No.1 in B minor, BWV 1002 - 2. Double (02:14)
07. Partita No.1 in B minor, BWV 1002 - 3. Corrente (03:29)
08. Partita No.1 in B minor, BWV 1002 - 4. Double. Presto (03:22)
09. Partita No.1 in B minor, BWV 1002 - 5. Sarabande (03:15)
10. Partita No.1 in B minor, BWV 1002 - 6. Double (03:07)
11. Partita No.1 in B minor, BWV 1002 - 7. Tempo di Borea (03:30)
12. Partita No.1 in B minor, BWV 1002 - 8. Double (03:22)

13. Sonata No.2 in A minor, BWV 1003 - 1. Grave (04:27)
14. Sonata No.2 in A minor, BWV 1003 - 2. Fuga (07:55)
15. Sonata No.2 in A minor, BWV 1003 - 3. Andante (05:33)
16. Sonata No.2 in A minor, BWV 1003 - 4. Allegro (05:16)

CD2:

01. Partita No.2 in D minor, BWV 1004 - 1. Allemanda (04:22)
02. Partita No.2 in D minor, BWV 1004 - 2. Corrente (02:26)
03. Partita No.2 in D minor, BWV 1004 - 3. Sarabanda (03:29)
04. Partita No.2 in D minor, BWV 1004 - 4. Giga (04:03)
05. Partita No.2 in D minor, BWV 1004 - 5. Ciaccona (14:00)

06. Sonata No.3 in C major, BWV 1005 - 1. Adagio (03:22)
07. Sonata No.3 in C major, BWV 1005 - 2. Fuga (09:06)
08. Sonata No.3 in C major, BWV 1005 - 3. Largo (02:38)
09. Sonata No.3 in C major, BWV 1005 - 4. Allegro assai (04:49)

10. Partita No.3 in E major, BWV 1006 - 1. Preludio (03:18)
11. Partita No.3 in E major, BWV 1006 - 2. Loure (03:45)
12. Partita No.3 in E major, BWV 1006 - 3. Gavotte en Rondeau (02:57)
13. Partita No.3 in E major, BWV 1006 - 4. Menuet I (01:38)
14. Partita No.3 in E major, BWV 1006 - 5. Menuet II (02:26)
15. Partita No.3 in E major, BWV 1006 - 6. Bourree (01:15)
16. Partita No.3 in E major, BWV 1006 - 7. Gigue (01:49)


Recorded: 25-29.09.2001, Lockenhaus (Partitas), 10-15.03.2002, Riga (Sonatas)

Exact Audio Copy V1.0 beta 3 from 29. August 2011

Отчёт EAC об извлечении, выполненном 12. июня 2014, 23:58

Gidon Kremer / J.S. Bach: The Sonatas and Partitas for Violin Solo CD1

Дисковод: HL-DT-STDVDRAM GU71N Adapter: 2 ID: 0

Режим чтения : Достоверность
Использование точного потока : Да
Отключение кэша аудио : Да
Использование указателей C2 : Нет

Коррекция смещения при чтении : 6
Способность читать области Lead-in и Lead-out : Нет
Заполнение пропущенных сэмплов тишиной : Да
Удаление блоков с тишиной в начале и конце : Нет
При вычислениях CRC использовались нулевые сэмплы : Да
Интерфейс : Встроенный Win32-интерфейс для Win NT/2000

Выходной формат : Пользовательский кодировщик
Выбранный битрейт : 1024 kBit/s
Качество : Высокий
Добавление ID3-тега : Нет
Утилита сжатия : C:\Program Files (x86)\Exact Audio Copy\Flac\flac.exe
Дополнительные параметры : -8 -V -T "ALBUMARTIST=%albumartist%" -T "ALBUM=%albumtitle%" -T "DATE=%year%" -T "TRACKTOTAL=%numtracks%" -T "GENRE=%genre%" -T "COMMENT=%comment%" -T "PERFORMER=%albuminterpret%" -T "COMPOSER=%composer%" %source% -o %dest%


TOC извлечённого CD

Трек | Старт | Длительность | Начальный сектор | Конечный сектор
––––––––––––––––––––––––––––––––––-
1 | 0:00.00 | 4:05.48 | 0 | 18422
2 | 4:05.48 | 4:50.13 | 18423 | 40185
3 | 8:55.61 | 3:04.30 | 40186 | 54015
4 | 12:00.16 | 3:30.28 | 54016 | 69793
5 | 15:30.44 | 4:37.31 | 69794 | 90599
6 | 20:08.00 | 2:14.52 | 90600 | 100701
7 | 22:22.52 | 3:29.44 | 100702 | 116420
8 | 25:52.21 | 3:22.47 | 116421 | 131617
9 | 29:14.68 | 3:15.63 | 131618 | 146305
10 | 32:30.56 | 3:07.51 | 146306 | 160381
11 | 35:38.32 | 3:30.66 | 160382 | 176197
12 | 39:09.23 | 3:22.51 | 176198 | 191398
13 | 42:31.74 | 4:27.74 | 191399 | 211497
14 | 46:59.73 | 7:55.47 | 211498 | 247169
15 | 54:55.45 | 5:33.31 | 247170 | 272175
16 | 60:29.01 | 5:16.08 | 272176 | 295883


Характеристики диапазона извлечения и сообщения об ошибках

Выбранный диапазон

Имя файла H:\Rips\J.S. Bach - Sonatas & Partitas for Solo Violin - Gidon Kremer (ECM, 2005)\Gidon Kremer - J.S. Bach - The Sonatas and Partitas for Violin Solo CD1.wav

Пиковый уровень 98.8 %
Скорость извлечения 2.0 X
Качество диапазона 99.9 %
CRC теста C5BC9C67
CRC копии C5BC9C67
Копирование… OK

Ошибок не произошло


AccurateRip: сводка

Трек 1 : извлечено точно (доверие 63) [27856DBE] (AR v2)
Трек 2 : извлечено точно (доверие 63) [525F43F3] (AR v2)
Трек 3 : извлечено точно (доверие 62) [9D211D17] (AR v2)
Трек 4 : извлечено точно (доверие 65) [6FB297CC] (AR v2)
Трек 5 : извлечено точно (доверие 64) [B830FD54] (AR v2)
Трек 6 : извлечено точно (доверие 64) [549B39C9] (AR v2)
Трек 7 : извлечено точно (доверие 63) [8BB8DB73] (AR v2)
Трек 8 : извлечено точно (доверие 64) [2962E505] (AR v2)
Трек 9 : извлечено точно (доверие 65) [0E895F94] (AR v2)
Трек 10 : извлечено точно (доверие 65) [A718A8B5] (AR v2)
Трек 11 : извлечено точно (доверие 64) [E650ED91] (AR v2)
Трек 12 : извлечено точно (доверие 65) [E1B07B0B] (AR v2)
Трек 13 : извлечено точно (доверие 65) [7D5E4F5B] (AR v2)
Трек 14 : извлечено точно (доверие 63) [85C574A3] (AR v2)
Трек 15 : извлечено точно (доверие 63) [5C426DAC] (AR v2)
Трек 16 : извлечено точно (доверие 65) [C810F273] (AR v2)

Все треки извлечены точно

Конец отчёта

==== Контрольная сумма отчёта EDB24FF98FA43FD1F777A68806F3B7BB1D3632A806BD1B1A54105A3B20016A6F ====

foobar2000 1.2 / Dynamic Range Meter 1.1.1
log date: 2015-07-30 16:40:15

––––––––––––––––––––––––––––––––––––––––
Analyzed: Gidon Kremer / J.S. Bach: The Sonatas and Partitas for Violin Solo CD1
––––––––––––––––––––––––––––––––––––––––

DR Peak RMS Duration Track
––––––––––––––––––––––––––––––––––––––––
DR13 -3.28 dB -22.56 dB 4:06 01-Sonata No.1 in G minor, BWV 1001 - 1. Adagio
DR13 -0.10 dB -17.63 dB 4:50 02-Sonata No.1 in G minor, BWV 1001 - 2. Fuga. Allegro
DR14 -6.12 dB -24.28 dB 3:04 03-Sonata No.1 in G minor, BWV 1001 - 3. Siciliana
DR14 -0.39 dB -19.55 dB 3:30 04-Sonata No.1 in G minor, BWV 1001 - 4. Presto
DR15 -0.26 dB -20.25 dB 4:37 05-Partita No.1 in B minor, BWV 1002 - 1. Allemanda
DR13 -8.78 dB -26.56 dB 2:15 06-Partita No.1 in B minor, BWV 1002 - 2. Double
DR14 -2.62 dB -21.83 dB 3:30 07-Partita No.1 in B minor, BWV 1002 - 3. Corrente
DR15 -0.58 dB -22.60 dB 3:23 08-Partita No.1 in B minor, BWV 1002 - 4. Double. Presto
DR14 -4.74 dB -23.31 dB 3:16 09-Partita No.1 in B minor, BWV 1002 - 5. Sarabande
DR14 -6.06 dB -26.35 dB 3:08 10-Partita No.1 in B minor, BWV 1002 - 6. Double
DR17 -0.18 dB -20.23 dB 3:31 11-Partita No.1 in B minor, BWV 1002 - 7. Tempo di Borea
DR14 -1.82 dB -19.77 dB 3:23 12-Partita No.1 in B minor, BWV 1002 - 8. Double
DR12 -3.34 dB -20.45 dB 4:28 13-Sonata No.2 in A minor, BWV 1003 - 1. Grave
DR14 -0.10 dB -18.01 dB 7:56 14-Sonata No.2 in A minor, BWV 1003 - 2. Fuga
DR13 -4.70 dB -25.38 dB 5:33 15-Sonata No.2 in A minor, BWV 1003 - 3. Andante
DR14 -0.18 dB -20.22 dB 5:16 16-Sonata No.2 in A minor, BWV 1003 - 4. Allegro
––––––––––––––––––––––––––––––––––––––––

Number of tracks: 16
Official DR value: DR14

Samplerate: 44100 Hz
Channels: 2
Bits per sample: 16
Bitrate: 694 kbps
Codec: FLAC
================================================================================


Exact Audio Copy V1.0 beta 3 from 29. August 2011

Отчёт EAC об извлечении, выполненном 13. июня 2014, 0:54

Gidon Kremer / J.S. Bach: The Sonatas and Partitas for Violin Solo CD2

Дисковод: HL-DT-STDVDRAM GU71N Adapter: 2 ID: 0

Режим чтения : Достоверность
Использование точного потока : Да
Отключение кэша аудио : Да
Использование указателей C2 : Нет

Коррекция смещения при чтении : 6
Способность читать области Lead-in и Lead-out : Нет
Заполнение пропущенных сэмплов тишиной : Да
Удаление блоков с тишиной в начале и конце : Нет
При вычислениях CRC использовались нулевые сэмплы : Да
Интерфейс : Встроенный Win32-интерфейс для Win NT/2000

Выходной формат : Пользовательский кодировщик
Выбранный битрейт : 1024 kBit/s
Качество : Высокий
Добавление ID3-тега : Нет
Утилита сжатия : C:\Program Files (x86)\Exact Audio Copy\Flac\flac.exe
Дополнительные параметры : -8 -V -T "ALBUMARTIST=%albumartist%" -T "ALBUM=%albumtitle%" -T "DATE=%year%" -T "TRACKTOTAL=%numtracks%" -T "GENRE=%genre%" -T "COMMENT=%comment%" -T "PERFORMER=%albuminterpret%" -T "COMPOSER=%composer%" %source% -o %dest%


TOC извлечённого CD

Трек | Старт | Длительность | Начальный сектор | Конечный сектор
––––––––––––––––––––––––––––––––––-
1 | 0:00.00 | 4:22.06 | 0 | 19655
2 | 4:22.06 | 2:26.58 | 19656 | 30663
3 | 6:48.64 | 3:29.07 | 30664 | 46345
4 | 10:17.71 | 4:03.36 | 46346 | 64606
5 | 14:21.32 | 14:00.29 | 64607 | 127635
6 | 28:21.61 | 3:22.67 | 127636 | 142852
7 | 31:44.53 | 9:06.62 | 142853 | 183864
8 | 40:51.40 | 2:38.09 | 183865 | 195723
9 | 43:29.49 | 4:49.74 | 195724 | 217472
10 | 48:19.48 | 3:18.45 | 217473 | 232367
11 | 51:38.18 | 3:45.74 | 232368 | 249316
12 | 55:24.17 | 2:57.36 | 249317 | 262627
13 | 58:21.53 | 1:38.44 | 262628 | 270021
14 | 60:00.22 | 2:26.70 | 270022 | 281041
15 | 62:27.17 | 1:15.68 | 281042 | 286734
16 | 63:43.10 | 1:49.71 | 286735 | 294980


Характеристики диапазона извлечения и сообщения об ошибках

Выбранный диапазон

Имя файла H:\Rips\J.S. Bach - Sonatas & Partitas for Solo Violin - Gidon Kremer (ECM, 2005)\Gidon Kremer - J.S. Bach - The Sonatas and Partitas for Violin Solo CD2.wav

Пиковый уровень 99.4 %
Скорость извлечения 2.1 X
Качество диапазона 100.0 %
CRC теста 3306C71E
CRC копии 3306C71E
Копирование… OK

Ошибок не произошло


AccurateRip: сводка

Трек 1 : извлечено точно (доверие 62) [D0A65572] (AR v2)
Трек 2 : извлечено точно (доверие 62) [CEB90971] (AR v2)
Трек 3 : извлечено точно (доверие 61) [749D5FEF] (AR v2)
Трек 4 : извлечено точно (доверие 61) [A87AC8EC] (AR v2)
Трек 5 : извлечено точно (доверие 62) [20A08641] (AR v2)
Трек 6 : извлечено точно (доверие 62) [6B85D962] (AR v2)
Трек 7 : извлечено точно (доверие 61) [66E006F4] (AR v2)
Трек 8 : извлечено точно (доверие 62) [145B6747] (AR v2)
Трек 9 : извлечено точно (доверие 61) [75A3398C] (AR v2)
Трек 10 : извлечено точно (доверие 62) [B99D1FBF] (AR v2)
Трек 11 : извлечено точно (доверие 61) [91DF9C3C] (AR v2)
Трек 12 : извлечено точно (доверие 62) [E73E6AA3] (AR v2)
Трек 13 : извлечено точно (доверие 62) [7346B313] (AR v2)
Трек 14 : извлечено точно (доверие 61) [936B5BBB] (AR v2)
Трек 15 : извлечено точно (доверие 61) [FE79BFEE] (AR v2)
Трек 16 : извлечено точно (доверие 60) [A184B3F2] (AR v2)

Все треки извлечены точно

Конец отчёта

==== Контрольная сумма отчёта FE21F31A084DDF0B18509D41F96A72B508A4412E02488F460E57C5B5CEEEB52E ====

foobar2000 1.2 / Dynamic Range Meter 1.1.1
log date: 2015-07-30 16:40:40

––––––––––––––––––––––––––––––––––––––––
Analyzed: Gidon Kremer / J.S. Bach: The Sonatas and Partitas for Violin Solo CD2
––––––––––––––––––––––––––––––––––––––––

DR Peak RMS Duration Track
––––––––––––––––––––––––––––––––––––––––
DR13 -5.53 dB -22.77 dB 4:22 01-Partita No.2 in D minor, BWV 1004 - 1. Allemanda
DR16 -0.73 dB -21.42 dB 2:27 02-Partita No.2 in D minor, BWV 1004 - 2. Corrente
DR13 -5.29 dB -23.71 dB 3:29 03-Partita No.2 in D minor, BWV 1004 - 3. Sarabanda
DR15 -3.77 dB -23.21 dB 4:03 04-Partita No.2 in D minor, BWV 1004 - 4. Giga
DR14 -0.21 dB -19.46 dB 14:00 05-Partita No.2 in D minor, BWV 1004 - 5. Ciaccona
DR14 -0.13 dB -19.21 dB 3:23 06-Sonata No.3 in C major, BWV 1005 - 1. Adagio
DR13 -0.05 dB -17.17 dB 9:07 07-Sonata No.3 in C major, BWV 1005 - 2. Fuga
DR14 -3.71 dB -23.78 dB 2:38 08-Sonata No.3 in C major, BWV 1005 - 3. Largo
DR14 -3.09 dB -22.04 dB 4:50 09-Sonata No.3 in C major, BWV 1005 - 4. Allegro assai
DR13 -1.10 dB -20.38 dB 3:19 10-Partita No.3 in E major, BWV 1006 - 1. Preludio
DR12 -6.37 dB -25.80 dB 3:46 11-Partita No.3 in E major, BWV 1006 - 2. Loure
DR15 -0.55 dB -21.07 dB 2:57 12-Partita No.3 in E major, BWV 1006 - 3. Gavotte en Rondeau
DR14 -2.71 dB -21.44 dB 1:39 13-Partita No.3 in E major, BWV 1006 - 4. Menuet I
DR14 -2.15 dB -22.13 dB 2:27 14-Partita No.3 in E major, BWV 1006 - 5. Menuet II
DR16 -0.72 dB -20.37 dB 1:16 15-Partita No.3 in E major, BWV 1006 - 6. Bourree
DR15 -3.62 dB -20.99 dB 1:50 16-Partita No.3 in E major, BWV 1006 - 7. Gigue
––––––––––––––––––––––––––––––––––––––––

Number of tracks: 16
Official DR value: DR14

Samplerate: 44100 Hz
Channels: 2
Bits per sample: 16
Bitrate: 683 kbps
Codec: FLAC
================================================================================

Gidon Kremer - J.S. Bach: The Sonatas and Partitas for Violin Solo (2005) 2CD

Gidon Kremer - J.S. Bach: The Sonatas and Partitas for Violin Solo (2005) 2CD