Subcategories

Gidon Kremer Edition - Historical Russian Archives [10cd Box Set] (2007)

Posted By: uff
Gidon Kremer Edition - Historical Russian Archives [10cd Box Set] (2007)

Gidon Kremer Edition - Historical Russian Archives [10cd Box Set] (2007)
classical | 10CD | EAC Rip | FLAC+CUE+LOG | cover | 2350MB
Brilliant Classics | rec 1967-92 | RAR +5% recovery

For collectors of recordings by Latvian violinist Gidon Kremer, this 10-disc set called Historical Russian Archives will be just the thing to fill the stray gaps in his discography. Recorded between 1967 and 1992, the sound here ranges from the acceptable to the outstanding, and featuring works from Bach's Chaconne to Salmanov's Second Violin Sonata, the repertoire ranges from the extremely well known to the almost unknown. But if one collects Kremer, neither the sound nor the repertoire will matter as much as the playing, and in that department these performances never disappoint. Kremer is, of course, a supreme virtuoso and nothing in any of these works is technically above him: not the insanely difficult acrobatics of Ernst's Caprice on Schubert's Erlkönig, not the preposterously demanding extended techniques of Stockhausen's excerpts from Tierkreis, not even the nearly demented expressive content of Schoenberg's Fantasy for violin and piano. Beyond technique, however, Kremer is a supreme interpreter and nothing in works as disparate as Biber's searing Mystery Sonata and Lourié's etiolated Concerto da Camera escapes him. But the best thing about Kremer's playing is his absolute refusal to compromise. Whatever the repertoire, Kremer gives all he has to the music. He is ineffably sweet in Schubert's Trockne Blumen Variations, deeply affecting in Chausson's Poeme, and wildly exciting in Paganini's Caprice No. 17, and just as convincing in Schubert as he is in Stockhausen. While not for everyone, this disc will be mandatory listening for anyone who loves Kremer. (allmusic)

Exact Audio Copy V0.99 prebeta 4 from 23. January 2008

EAC extraction logfile from 4. July 2008, 10:55

Gidon Kremer / Historical Russian Archives Cd01

Used drive : PLEXTOR CD-R PREMIUM2 Adapter: 1 ID: 1

Read mode : Secure
Utilize accurate stream : Yes
Defeat audio cache : Yes
Make use of C2 pointers : No

Read offset correction : 30
Overread into Lead-In and Lead-Out : No
Fill up missing offset samples with silence : Yes
Delete leading and trailing silent blocks : No
Null samples used in CRC calculations : Yes
Used interface : Installed external ASPI interface
Gap handling : Appended to previous track

Used output format : User Defined Encoder
Selected bitrate : 32 kBit/s
Quality : High
Add ID3 tag : No
Command line compressor : C:\Programmi\FLAC\flac.exe
Additional command line options : -8 -V -T "ARTIST=%a" -T "TITLE=%t" -T "ALBUM=%g" -T "DATE=%y" -T "TRACKNUMBER=%n" -T "GENRE=%m" -T "COMMENT=EAC FLAC -8" %s


TOC of the extracted CD

Track | Start | Length | Start sector | End sector
––––––––––––––––––––––––––––-
1 | 0:00.00 | 14:28.74 | 0 | 65173
2 | 14:28.74 | 3:31.05 | 65174 | 81003
3 | 18:00.04 | 4:32.04 | 81004 | 101407
4 | 22:32.08 | 2:45.28 | 101408 | 113810
5 | 25:17.36 | 1:45.01 | 113811 | 121686
6 | 27:02.37 | 2:37.29 | 121687 | 133490
7 | 29:39.66 | 1:17.59 | 133491 | 139324
8 | 30:57.50 | 2:03.45 | 139325 | 148594
9 | 33:01.20 | 4:39.19 | 148595 | 169538
10 | 37:40.39 | 8:20.15 | 169539 | 207053
11 | 46:00.54 | 4:09.01 | 207054 | 225729
12 | 50:09.55 | 6:55.13 | 225730 | 256867
13 | 57:04.68 | 5:18.04 | 256868 | 280721


Track 1

Filename C:\My Rip\01 - Bach-Ciacona-From Partita For Violin Solo In D Minor BWV 1004.wav

Pre-gap length 0:00:02.00

Peak level 83.0 %
Track quality 99.9 %
Test CRC E5592D1F
Copy CRC E5592D1F
Track not present in AccurateRip database
Copy OK

Track 2

Filename C:\My Rip\02 - Bach-Partita For Viollin Solo In E Major BWV 1006-1-Preludio.wav

Peak level 75.1 %
Track quality 100.0 %
Test CRC 6E235108
Copy CRC 6E235108
Track not present in AccurateRip database
Copy OK

Track 3

Filename C:\My Rip\03 - Bach-Partita For Viollin Solo In E Major BWV 1006-2-Loure.wav

Peak level 63.9 %
Track quality 100.0 %
Test CRC E26DDB89
Copy CRC E26DDB89
Track not present in AccurateRip database
Copy OK

Track 4

Filename C:\My Rip\04 - Bach-Partita For Viollin Solo In E Major BWV 1006-3-Gavotte En Rondeau.wav

Peak level 62.9 %
Track quality 99.9 %
Test CRC 1545094A
Copy CRC 1545094A
Track not present in AccurateRip database
Copy OK

Track 5

Filename C:\My Rip\05 - Bach-Partita For Viollin Solo In E Major BWV 1006-4-Menuet I.wav

Peak level 52.9 %
Track quality 100.0 %
Test CRC A5DD07AE
Copy CRC A5DD07AE
Track not present in AccurateRip database
Copy OK

Track 6

Filename C:\My Rip\06 - Bach-Partita For Viollin Solo In E Major BWV 1006-5-Menuet II.wav

Peak level 57.3 %
Track quality 99.9 %
Test CRC CE9BEB58
Copy CRC CE9BEB58
Track not present in AccurateRip database
Copy OK

Track 7

Filename C:\My Rip\07 - Bach-Partita For Viollin Solo In E Major BWV 1006-6-Bourree.wav

Peak level 54.9 %
Track quality 100.0 %
Test CRC 0B050285
Copy CRC 0B050285
Track not present in AccurateRip database
Copy OK

Track 8

Filename C:\My Rip\08 - Bach-Partita For Viollin Solo In E Major BWV 1006-7-Gigue.wav

Peak level 81.1 %
Track quality 100.0 %
Test CRC D0AB2142
Copy CRC D0AB2142
Track not present in AccurateRip database
Copy OK

Track 9

Filename C:\My Rip\09 - Bach-From Sonata For Violin Solo In A Minor BWV 1003-1-Grave.wav

Peak level 76.8 %
Track quality 99.9 %
Test CRC 784BBA76
Copy CRC 784BBA76
Track not present in AccurateRip database
Copy OK

Track 10

Filename C:\My Rip\10 - Bach-From Sonata For Violin Solo In A Minor BWV 1003-2-Fugue.wav

Peak level 76.5 %
Track quality 100.0 %
Test CRC D3CFEAC6
Copy CRC D3CFEAC6
Track not present in AccurateRip database
Copy OK

Track 11

Filename C:\My Rip\11 - Bach - Concerto For 2 Violon & Orchestra In D Minor BWV 1043-1-Vivace.wav

Peak level 89.4 %
Track quality 100.0 %
Test CRC 1CA42AA8
Copy CRC 1CA42AA8
Track not present in AccurateRip database
Copy OK

Track 12

Filename C:\My Rip\12 - Bach - Concerto For 2 Violon & Orchestra In D Minor BWV 1043-2-Largo Ma Non Troppo.wav

Peak level 86.9 %
Track quality 100.0 %
Test CRC 61A61988
Copy CRC 61A61988
Track not present in AccurateRip database
Copy OK

Track 13

Filename C:\My Rip\13 - Bach - Concerto For 2 Violon & Orchestra In D Minor BWV 1043-3-Allegro.wav

Peak level 87.1 %
Track quality 100.0 %
Test CRC 52B5FB81
Copy CRC 52B5FB81
Track not present in AccurateRip database
Copy OK


None of the tracks are present in the AccurateRip database

No errors occurred

End of status report
Exact Audio Copy V0.99 prebeta 4 from 23. January 2008

EAC extraction logfile from 4. July 2008, 20:16

Gidon Kremer / Historical Russian Archives Cd02

Used drive : PLEXTOR CD-R PREMIUM2 Adapter: 1 ID: 1

Read mode : Secure
Utilize accurate stream : Yes
Defeat audio cache : Yes
Make use of C2 pointers : No

Read offset correction : 30
Overread into Lead-In and Lead-Out : No
Fill up missing offset samples with silence : Yes
Delete leading and trailing silent blocks : No
Null samples used in CRC calculations : Yes
Used interface : Installed external ASPI interface
Gap handling : Appended to previous track

Used output format : User Defined Encoder
Selected bitrate : 32 kBit/s
Quality : High
Add ID3 tag : No
Command line compressor : C:\Programmi\FLAC\flac.exe
Additional command line options : -8 -V -T "ARTIST=%a" -T "TITLE=%t" -T "ALBUM=%g" -T "DATE=%y" -T "TRACKNUMBER=%n" -T "GENRE=%m" -T "COMMENT=EAC FLAC -8" %s


TOC of the extracted CD

Track | Start | Length | Start sector | End sector
––––––––––––––––––––––––––––-
1 | 0:00.00 | 7:47.00 | 0 | 35024
2 | 7:47.00 | 6:16.29 | 35025 | 63253
3 | 14:03.29 | 4:28.01 | 63254 | 83354
4 | 18:31.30 | 7:59.37 | 83355 | 119316
5 | 26:30.67 | 9:32.12 | 119317 | 162228
6 | 36:03.04 | 9:11.69 | 162229 | 203622
7 | 45:14.73 | 8:33.17 | 203623 | 242114
8 | 53:48.15 | 2:10.32 | 242115 | 251896
9 | 55:58.47 | 1:32.58 | 251897 | 258854
10 | 57:31.30 | 3:21.08 | 258855 | 273937


Track 1

Filename C:\My Rip\01 - Mozart-Violin Concerto No 2 D Major KV 211-1-Allegro Moderato.wav

Pre-gap length 0:00:02.00

Peak level 57.1 %
Track quality 100.0 %
Test CRC 0D383E30
Copy CRC 0D383E30
Track not present in AccurateRip database
Copy OK

Track 2

Filename C:\My Rip\02 - Mozart-Violin Concerto No 2 D Major KV 211-2-Andante.wav

Peak level 66.1 %
Track quality 100.0 %
Test CRC 37C0F7D0
Copy CRC 37C0F7D0
Track not present in AccurateRip database
Copy OK

Track 3

Filename C:\My Rip\03 - Mozart-Violin Concerto No 2 D Major KV 211-3-Rondo Allegro.wav

Peak level 64.2 %
Track quality 100.0 %
Test CRC CCE1C741
Copy CRC CCE1C741
Track not present in AccurateRip database
Copy OK

Track 4

Filename C:\My Rip\04 - Mozart-Concertione For 2 Violins & Orchestra In C Major KV 190-1-Allegron Con Spirito.wav

Peak level 84.7 %
Track quality 99.9 %
Test CRC 40875E75
Copy CRC 40875E75
Track not present in AccurateRip database
Copy OK

Track 5

Filename C:\My Rip\05 - Mozart-Concertione For 2 Violins & Orchestra In C Major KV 190-2-Andante Grazioso.wav

Peak level 80.5 %
Track quality 99.9 %
Test CRC F5F23528
Copy CRC F5F23528
Track not present in AccurateRip database
Copy OK

Track 6

Filename C:\My Rip\06 - Mozart-Concertione For 2 Violins & Orchestra In C Major KV 190-3-Tempo Di Menuetto.wav

Peak level 76.8 %
Track quality 100.0 %
Test CRC 108797AE
Copy CRC 108797AE
Track not present in AccurateRip database
Copy OK

Track 7

Filename C:\My Rip\07 - Mozart-Violin Concerto No 3 In G Major KV216-Allegro (Transcript. For Violin & Piano).wav

Peak level 100.0 %
Track quality 100.0 %
Test CRC 26065293
Copy CRC 26065293
Track not present in AccurateRip database
Copy OK

Track 8

Filename C:\My Rip\08 - Mozart-Concertione For 2 Violins & Orchestra In C Major KV 190-1-Andante.wav

Peak level 56.1 %
Track quality 100.0 %
Test CRC DE6361CC
Copy CRC DE6361CC
Track not present in AccurateRip database
Copy OK

Track 9

Filename C:\My Rip\09 - Mozart-Concertione For 2 Violins & Orchestra In C Major KV 190-2-Allegretto.wav

Peak level 87.8 %
Track quality 100.0 %
Test CRC 4474D406
Copy CRC 4474D406
Track not present in AccurateRip database
Copy OK

Track 10

Filename C:\My Rip\10 - Boccherini-Menuet From String Quintet In E Major G 275.wav

Peak level 84.0 %
Track quality 100.0 %
Test CRC 6DC841D2
Copy CRC 6DC841D2
Track not present in AccurateRip database
Copy OK


None of the tracks are present in the AccurateRip database

No errors occurred

End of status report
Exact Audio Copy V0.99 prebeta 4 from 23. January 2008

EAC extraction logfile from 4. July 2008, 21:24

Gidon Kremer / Historical Russian Archives Cd03

Used drive : PLEXTOR CD-R PREMIUM2 Adapter: 1 ID: 1

Read mode : Secure
Utilize accurate stream : Yes
Defeat audio cache : Yes
Make use of C2 pointers : No

Read offset correction : 30
Overread into Lead-In and Lead-Out : No
Fill up missing offset samples with silence : Yes
Delete leading and trailing silent blocks : No
Null samples used in CRC calculations : Yes
Used interface : Installed external ASPI interface
Gap handling : Appended to previous track

Used output format : User Defined Encoder
Selected bitrate : 32 kBit/s
Quality : High
Add ID3 tag : No
Command line compressor : C:\Programmi\FLAC\flac.exe
Additional command line options : -8 -V -T "ARTIST=%a" -T "TITLE=%t" -T "ALBUM=%g" -T "DATE=%y" -T "TRACKNUMBER=%n" -T "GENRE=%m" -T "COMMENT=EAC FLAC -8" %s


TOC of the extracted CD

Track | Start | Length | Start sector | End sector
––––––––––––––––––––––––––––-
1 | 0:00.00 | 11:12.73 | 0 | 50472
2 | 11:12.73 | 6:27.16 | 50473 | 79513
3 | 17:40.14 | 1:51.13 | 79514 | 87851
4 | 19:31.27 | 8:56.69 | 87852 | 128120
5 | 28:28.21 | 10:58.08 | 128121 | 177478
6 | 39:26.29 | 4:25.31 | 177479 | 197384
7 | 43:51.60 | 9:19.66 | 197385 | 239375
8 | 53:11.51 | 2:03.16 | 239376 | 248616
9 | 55:14.67 | 2:03.53 | 248617 | 257894
10 | 57:18.45 | 1:59.51 | 257895 | 266870
11 | 59:18.21 | 1:28.67 | 266871 | 273537
12 | 60:47.13 | 1:34.04 | 273538 | 280591
13 | 62:21.17 | 1:42.52 | 280592 | 288293


Track 1

Filename C:\My Rip\01 - Beethoven-Violin Sonata In G Major Op 46-1-Allegro Moderato.wav

Pre-gap length 0:00:02.00

Peak level 78.3 %
Track quality 100.0 %
Test CRC 1D8A7215
Copy CRC 1D8A7215
Track not present in AccurateRip database
Copy OK

Track 2

Filename C:\My Rip\02 - Beethoven-Violin Sonata In G Major Op 46-2-Adagio Espressivo.wav

Peak level 46.2 %
Track quality 100.0 %
Test CRC 5BDA1CF6
Copy CRC 5BDA1CF6
Track not present in AccurateRip database
Copy OK

Track 3

Filename C:\My Rip\03 - Beethoven-Violin Sonata In G Major Op 46-3-Scherzo, Allegro.wav

Peak level 61.7 %
Track quality 100.0 %
Test CRC 01E24651
Copy CRC 01E24651
Track not present in AccurateRip database
Copy OK

Track 4

Filename C:\My Rip\04 - Beethoven-Violin Sonata In G Major Op 46-4-Poco Allegretto.wav

Peak level 58.1 %
Track quality 100.0 %
Test CRC 30285ECF
Copy CRC 30285ECF
Track not present in AccurateRip database
Copy OK

Track 5

Filename C:\My Rip\05 - Beethoven-Variation In F Major On Mozart's-Se Vuol'ballare.wav

Peak level 68.4 %
Track quality 100.0 %
Test CRC 03B8FD52
Copy CRC 03B8FD52
Track not present in AccurateRip database
Copy OK

Track 6

Filename C:\My Rip\06 - Beethoven-6 German Dances.wav

Peak level 51.4 %
Track quality 100.0 %
Test CRC 758B73F4
Copy CRC 758B73F4
Track not present in AccurateRip database
Copy OK

Track 7

Filename C:\My Rip\07 - Biber-Ciacona From Mystery Sonata No 4 In D Minor-The Presentation.wav

Peak level 66.7 %
Track quality 100.0 %
Test CRC 48B6B149
Copy CRC 48B6B149
Track not present in AccurateRip database
Copy OK

Track 8

Filename C:\My Rip\08 - Teleman-Sonata En Canon In A Minor For 2 Violin Op 5 No 6-1-Vivace.wav

Peak level 56.9 %
Track quality 99.9 %
Test CRC D55C5626
Copy CRC D55C5626
Track not present in AccurateRip database
Copy OK

Track 9

Filename C:\My Rip\09 - Teleman-Sonata En Canon In A Minor For 2 Violin Op 5 No 6-2-Soave.wav

Peak level 53.6 %
Track quality 100.0 %
Test CRC 4ED2E6B6
Copy CRC 4ED2E6B6
Track not present in AccurateRip database
Copy OK

Track 10

Filename C:\My Rip\10 - Teleman-Sonata En Canon In A Minor For 2 Violin Op 5 No 6-3-Allegro Assai.wav

Peak level 61.8 %
Track quality 100.0 %
Test CRC E8D660B0
Copy CRC E8D660B0
Track not present in AccurateRip database
Copy OK

Track 11

Filename C:\My Rip\11 - Teleman-Sonata En Canon In G Major Op 5 No 1-1-Vivace.wav

Peak level 47.3 %
Track quality 100.0 %
Test CRC C3E161A6
Copy CRC C3E161A6
Track not present in AccurateRip database
Copy OK

Track 12

Filename C:\My Rip\12 - Teleman-Sonata En Canon In G Major Op 5 No 1-2-Adagio.wav

Peak level 38.5 %
Track quality 100.0 %
Test CRC FE04FD8C
Copy CRC FE04FD8C
Track not present in AccurateRip database
Copy OK

Track 13

Filename C:\My Rip\13 - Teleman-Sonata En Canon In G Major Op 5 No 1-3-Allegro.wav

Peak level 61.8 %
Track quality 100.0 %
Test CRC 56A15FC7
Copy CRC 56A15FC7
Track not present in AccurateRip database
Copy OK


None of the tracks are present in the AccurateRip database

No errors occurred

End of status report
Exact Audio Copy V0.99 prebeta 4 from 23. January 2008

EAC extraction logfile from 4. July 2008, 23:14

Gidon Kremer / Historical Russian Archives Cd04

Used drive : PLEXTOR CD-R PREMIUM2 Adapter: 1 ID: 1

Read mode : Secure
Utilize accurate stream : Yes
Defeat audio cache : Yes
Make use of C2 pointers : No

Read offset correction : 30
Overread into Lead-In and Lead-Out : No
Fill up missing offset samples with silence : Yes
Delete leading and trailing silent blocks : No
Null samples used in CRC calculations : Yes
Used interface : Installed external ASPI interface
Gap handling : Appended to previous track

Used output format : User Defined Encoder
Selected bitrate : 32 kBit/s
Quality : High
Add ID3 tag : No
Command line compressor : C:\Programmi\FLAC\flac.exe
Additional command line options : -8 -V -T "ARTIST=%a" -T "TITLE=%t" -T "ALBUM=%g" -T "DATE=%y" -T "TRACKNUMBER=%n" -T "GENRE=%m" -T "COMMENT=EAC FLAC -8" %s


TOC of the extracted CD

Track | Start | Length | Start sector | End sector
––––––––––––––––––––––––––––-
1 | 0:00.00 | 13:55.15 | 0 | 62639
2 | 13:55.15 | 20:04.45 | 62640 | 152984
3 | 33:59.60 | 3:20.35 | 152985 | 168019
4 | 37:20.20 | 11:02.31 | 168020 | 217700
5 | 48:22.51 | 5:44.03 | 217701 | 243503
6 | 54:06.54 | 3:24.56 | 243504 | 258859


Track 1

Filename C:\My Rip\01 - Schubert-Rondo For Violin & Strings In A Major D 438.wav

Pre-gap length 0:00:02.00

Peak level 71.1 %
Track quality 100.0 %
Test CRC F2E172AE
Copy CRC F2E172AE
Track not present in AccurateRip database
Copy OK

Track 2

Filename C:\My Rip\02 - Schubert-Theme & Variations On Trockne Blumen.wav

Peak level 72.0 %
Track quality 100.0 %
Test CRC A55B5C58
Copy CRC A55B5C58
Track not present in AccurateRip database
Copy OK

Track 3

Filename C:\My Rip\03 - Schubert-Rondo Brillant In B Minor D 895-1-Andante.wav

Peak level 72.7 %
Track quality 100.0 %
Test CRC BDF02DEF
Copy CRC BDF02DEF
Track not present in AccurateRip database
Copy OK

Track 4

Filename C:\My Rip\04 - Schubert-Rondo Brillant In B Minor D 895-2-Allegro.wav

Peak level 74.9 %
Track quality 100.0 %
Test CRC 1B3E93E5
Copy CRC 1B3E93E5
Track not present in AccurateRip database
Copy OK

Track 5

Filename C:\My Rip\05 - Tchaikovsky-Valse Scherzo.wav

Peak level 77.7 %
Track quality 100.0 %
Test CRC 7A652BA5
Copy CRC 7A652BA5
Track not present in AccurateRip database
Copy OK

Track 6

Filename C:\My Rip\06 - Tchaikovsky-Melodie-From Souvenir D'un Lieu Cher-Op 42.wav

Peak level 62.9 %
Track quality 100.0 %
Test CRC FEE0C773
Copy CRC FEE0C773
Track not present in AccurateRip database
Copy OK


None of the tracks are present in the AccurateRip database

No errors occurred

End of status report
Exact Audio Copy V0.99 prebeta 4 from 23. January 2008

EAC extraction logfile from 5. July 2008, 6:42

Gidon Kremer / Historical Russian Archives Cd05

Used drive : PLEXTOR CD-R PREMIUM2 Adapter: 1 ID: 1

Read mode : Secure
Utilize accurate stream : Yes
Defeat audio cache : Yes
Make use of C2 pointers : No

Read offset correction : 30
Overread into Lead-In and Lead-Out : No
Fill up missing offset samples with silence : Yes
Delete leading and trailing silent blocks : No
Null samples used in CRC calculations : Yes
Used interface : Installed external ASPI interface
Gap handling : Appended to previous track

Used output format : User Defined Encoder
Selected bitrate : 32 kBit/s
Quality : High
Add ID3 tag : No
Command line compressor : C:\Programmi\FLAC\flac.exe
Additional command line options : -8 -V -T "ARTIST=%a" -T "TITLE=%t" -T "ALBUM=%g" -T "DATE=%y" -T "TRACKNUMBER=%n" -T "GENRE=%m" -T "COMMENT=EAC FLAC -8" %s


TOC of the extracted CD

Track | Start | Length | Start sector | End sector
––––––––––––––––––––––––––––-
1 | 0:00.00 | 8:44.24 | 0 | 39323
2 | 8:44.24 | 9:11.43 | 39324 | 80691
3 | 17:55.67 | 4:20.71 | 80692 | 100262
4 | 22:16.63 | 14:13.13 | 100263 | 164250
5 | 36:30.01 | 3:52.49 | 164251 | 181699
6 | 40:22.50 | 4:32.55 | 181700 | 202154
7 | 44:55.30 | 4:27.06 | 202155 | 222185
8 | 49:22.36 | 1:56.30 | 222186 | 230915
9 | 51:18.66 | 2:21.71 | 230916 | 241561
10 | 53:40.62 | 5:04.17 | 241562 | 264378
11 | 58:45.04 | 6:10.00 | 264379 | 292128


Track 1

Filename C:\My Rip\01 - Mendelssohn-Concerto For Violin & String In D Minor-1-Allegro Molto.wav

Pre-gap length 0:00:02.00

Peak level 73.9 %
Track quality 99.9 %
Test CRC 2407DD12
Copy CRC 2407DD12
Track not present in AccurateRip database
Copy OK

Track 2

Filename C:\My Rip\02 - Mendelssohn-Concerto For Violin & String In D Minor-2-Andante.wav

Peak level 46.4 %
Track quality 100.0 %
Test CRC 1FBB02E0
Copy CRC 1FBB02E0
Track not present in AccurateRip database
Copy OK

Track 3

Filename C:\My Rip\03 - Mendelssohn-Concerto For Violin & String In D Minor-3-Allegro.wav

Peak level 75.0 %
Track quality 100.0 %
Test CRC C7AF26F6
Copy CRC C7AF26F6
Track not present in AccurateRip database
Copy OK

Track 4

Filename C:\My Rip\04 - Chausson-Poeme For Violin And Piano Op 25.wav

Peak level 67.2 %
Track quality 100.0 %
Test CRC D87AC71F
Copy CRC D87AC71F
Track not present in AccurateRip database
Copy OK

Track 5

Filename C:\My Rip\05 - Ysaye-Sonata For Solo Violin Op 27 No 5-1-L'aurore.wav

Peak level 58.8 %
Track quality 100.0 %
Test CRC ECC62320
Copy CRC ECC62320
Track not present in AccurateRip database
Copy OK

Track 6

Filename C:\My Rip\06 - Ysaye-Sonata For Solo Violin Op 27 No 5-2-Danse Rustique.wav

Peak level 64.4 %
Track quality 100.0 %
Test CRC 2B6603F2
Copy CRC 2B6603F2
Track not present in AccurateRip database
Copy OK

Track 7

Filename C:\My Rip\07 - Ysaye-Sonata For Violin & Piano In F Minor After Locatelli-1-Lento Assai E Mesto.wav

Peak level 47.9 %
Track quality 100.0 %
Test CRC 38B6A341
Copy CRC 38B6A341
Track not present in AccurateRip database
Copy OK

Track 8

Filename C:\My Rip\08 - Ysaye-Sonata For Violin & Piano In F Minor After Locatelli-2-Allegro.wav

Peak level 54.7 %
Track quality 100.0 %
Test CRC D077ABFD
Copy CRC D077ABFD
Track not present in AccurateRip database
Copy OK

Track 9

Filename C:\My Rip\09 - Ysaye-Sonata For Violin & Piano In F Minor After Locatelli-3-Lento.wav

Peak level 33.0 %
Track quality 100.0 %
Test CRC 13B939A0
Copy CRC 13B939A0
Track not present in AccurateRip database
Copy OK

Track 10

Filename C:\My Rip\10 - Ysaye-Sonata For Violin & Piano In F Minor After Locatelli-4-Tempo Moderato.wav

Peak level 50.4 %
Track quality 100.0 %
Test CRC 2F203758
Copy CRC 2F203758
Track not present in AccurateRip database
Copy OK

Track 11

Filename C:\My Rip\11 - Ravel-Blues From Violin Sonata.wav

Peak level 70.5 %
Track quality 100.0 %
Test CRC 99301B09
Copy CRC 99301B09
Track not present in AccurateRip database
Copy OK


None of the tracks are present in the AccurateRip database

No errors occurred

End of status report
Exact Audio Copy V0.99 prebeta 4 from 23. January 2008

EAC extraction logfile from 5. July 2008, 7:09

Gidon Kremer / Historical Russian Archives Cd06

Used drive : PLEXTOR CD-R PREMIUM2 Adapter: 1 ID: 1

Read mode : Secure
Utilize accurate stream : Yes
Defeat audio cache : Yes
Make use of C2 pointers : No

Read offset correction : 30
Overread into Lead-In and Lead-Out : No
Fill up missing offset samples with silence : Yes
Delete leading and trailing silent blocks : No
Null samples used in CRC calculations : Yes
Used interface : Installed external ASPI interface
Gap handling : Appended to previous track

Used output format : User Defined Encoder
Selected bitrate : 32 kBit/s
Quality : High
Add ID3 tag : No
Command line compressor : C:\Programmi\FLAC\flac.exe
Additional command line options : -8 -V -T "ARTIST=%a" -T "TITLE=%t" -T "ALBUM=%g" -T "DATE=%y" -T "TRACKNUMBER=%n" -T "GENRE=%m" -T "COMMENT=EAC FLAC -8" %s


TOC of the extracted CD

Track | Start | Length | Start sector | End sector
––––––––––––––––––––––––––––-
1 | 0:00.00 | 10:46.48 | 0 | 48497
2 | 10:46.48 | 8:19.23 | 48498 | 85945
3 | 19:05.71 | 8:56.74 | 85946 | 126219
4 | 28:02.70 | 9:31.39 | 126220 | 169083
5 | 37:34.34 | 5:58.70 | 169084 | 196003
6 | 43:33.29 | 4:37.73 | 196004 | 216851
7 | 48:11.27 | 11:32.11 | 216852 | 268762


Track 1

Filename C:\My Rip\01 - Strauss-Violin Sonata In E Flat Major Op 18-1-Allegro Ma Non Troppo.wav

Pre-gap length 0:00:02.00

Peak level 75.0 %
Track quality 100.0 %
Test CRC E4C6D554
Copy CRC E4C6D554
Track not present in AccurateRip database
Copy OK

Track 2

Filename C:\My Rip\02 - Strauss-Violin Sonata In E Flat Major Op 18-2-Improvisation-Andante Cantabile.wav

Peak level 66.3 %
Track quality 100.0 %
Test CRC 872E2AED
Copy CRC 872E2AED
Track not present in AccurateRip database
Copy OK

Track 3

Filename C:\My Rip\03 - Strauss-Violin Sonata In E Flat Major Op 18-3-Finale-Andante Allegro.wav

Peak level 74.4 %
Track quality 100.0 %
Test CRC B30CFA1D
Copy CRC B30CFA1D
Track not present in AccurateRip database
Copy OK

Track 4

Filename C:\My Rip\04 - Reger-Violin Sonata In C Minor Op 139-1-Con Passione.wav

Peak level 88.1 %
Track quality 100.0 %
Test CRC 91D41860
Copy CRC 91D41860
Track not present in AccurateRip database
Copy OK

Track 5

Filename C:\My Rip\05 - Reger-Violin Sonata In C Minor Op 139-2-Largo.wav

Peak level 65.6 %
Track quality 99.9 %
Test CRC FDB539AF
Copy CRC FDB539AF
Track not present in AccurateRip database
Copy OK

Track 6

Filename C:\My Rip\06 - Reger-Violin Sonata In C Minor Op 139-3-Vivace.wav

Peak level 77.4 %
Track quality 100.0 %
Test CRC A3205B25
Copy CRC A3205B25
Track not present in AccurateRip database
Copy OK

Track 7

Filename C:\My Rip\07 - Reger-Violin Sonata In C Minor Op 139-4-Andantino Con Variazioni.wav

Peak level 90.1 %
Track quality 100.0 %
Test CRC BAC496EF
Copy CRC BAC496EF
Track not present in AccurateRip database
Copy OK


None of the tracks are present in the AccurateRip database

No errors occurred

End of status report
Exact Audio Copy V0.99 prebeta 4 from 23. January 2008

EAC extraction logfile from 5. July 2008, 8:01

Gidon Kremer / Historical Russian Archives Cd07

Used drive : PLEXTOR CD-R PREMIUM2 Adapter: 1 ID: 1

Read mode : Secure
Utilize accurate stream : Yes
Defeat audio cache : Yes
Make use of C2 pointers : No

Read offset correction : 30
Overread into Lead-In and Lead-Out : No
Fill up missing offset samples with silence : Yes
Delete leading and trailing silent blocks : No
Null samples used in CRC calculations : Yes
Used interface : Installed external ASPI interface
Gap handling : Appended to previous track

Used output format : User Defined Encoder
Selected bitrate : 32 kBit/s
Quality : High
Add ID3 tag : No
Command line compressor : C:\Programmi\FLAC\flac.exe
Additional command line options : -8 -V -T "ARTIST=%a" -T "TITLE=%t" -T "ALBUM=%g" -T "DATE=%y" -T "TRACKNUMBER=%n" -T "GENRE=%m" -T "COMMENT=EAC FLAC -8" %s


TOC of the extracted CD

Track | Start | Length | Start sector | End sector
––––––––––––––––––––––––––––-
1 | 0:00.00 | 6:34.11 | 0 | 29560
2 | 6:34.11 | 7:10.16 | 29561 | 61826
3 | 13:44.27 | 7:24.65 | 61827 | 95191
4 | 21:09.17 | 7:16.26 | 95192 | 127917
5 | 28:25.43 | 4:05.21 | 127918 | 146313
6 | 32:30.64 | 2:54.74 | 146314 | 159437
7 | 35:25.63 | 3:06.66 | 159438 | 173453
8 | 38:32.54 | 4:17.10 | 173454 | 192738
9 | 42:49.64 | 5:54.67 | 192739 | 219355
10 | 48:44.56 | 4:22.40 | 219356 | 239045


Track 1

Filename C:\My Rip\01 - Prokofiev-Violin Sonata No 1 In F Minor Op 80-1-Andante Assai.wav

Pre-gap length 0:00:02.00

Peak level 65.7 %
Track quality 99.9 %
Test CRC 2034E52F
Copy CRC 2034E52F
Track not present in AccurateRip database
Copy OK

Track 2

Filename C:\My Rip\02 - Prokofiev-Violin Sonata No 1 In F Minor Op 80-2-Allegro Brusco.wav

Peak level 51.3 %
Track quality 100.0 %
Test CRC 26A38163
Copy CRC 26A38163
Track not present in AccurateRip database
Copy OK

Track 3

Filename C:\My Rip\03 - Prokofiev-Violin Sonata No 1 In F Minor Op 80-3-Andante.wav

Peak level 88.9 %
Track quality 100.0 %
Test CRC B505AE12
Copy CRC B505AE12
Track not present in AccurateRip database
Copy OK

Track 4

Filename C:\My Rip\04 - Prokofiev-Violin Sonata No 1 In F Minor Op 80-4-Allegrissimo-Andante Assai Come Prima.wav

Peak level 69.0 %
Track quality 99.9 %
Test CRC 5044145C
Copy CRC 5044145C
Track not present in AccurateRip database
Copy OK

Track 5

Filename C:\My Rip\05 - Prokofiev-Scherzo-Vivacissimo-From Violin Concerto No 1 In D Major Op 19-Transcription.wav

Peak level 99.3 %
Track quality 100.0 %
Test CRC 20E606A0
Copy CRC 20E606A0
Track not present in AccurateRip database
Copy OK

Track 6

Filename C:\My Rip\06 - Prokofiev-Sonata For 2 Violins In C Major Op 56-1-Andante Cantabile.wav

Peak level 51.5 %
Track quality 99.9 %
Test CRC C22127D7
Copy CRC C22127D7
Track not present in AccurateRip database
Copy OK

Track 7

Filename C:\My Rip\07 - Prokofiev-Sonata For 2 Violins In C Major Op 56-2-Allegro.wav

Peak level 68.2 %
Track quality 100.0 %
Test CRC DB10BD05
Copy CRC DB10BD05
Track not present in AccurateRip database
Copy OK

Track 8

Filename C:\My Rip\08 - Prokofiev-Sonata For 2 Violins In C Major Op 56-3-Commodo.wav

Peak level 52.2 %
Track quality 100.0 %
Test CRC A7C1D3E0
Copy CRC A7C1D3E0
Track not present in AccurateRip database
Copy OK

Track 9

Filename C:\My Rip\09 - Prokofiev-Sonata For 2 Violins In C Major Op 56-4-Allegro Con Brio.wav

Peak level 64.1 %
Track quality 100.0 %
Test CRC 8CB35E83
Copy CRC 8CB35E83
Track not present in AccurateRip database
Copy OK

Track 10

Filename C:\My Rip\10 - Kupkovic-Souvenir.wav

Peak level 71.6 %
Track quality 100.0 %
Test CRC 1CA5FD17
Copy CRC 1CA5FD17
Track not present in AccurateRip database
Copy OK


None of the tracks are present in the AccurateRip database

No errors occurred

End of status report
Exact Audio Copy V0.99 prebeta 4 from 23. January 2008

EAC extraction logfile from 5. July 2008, 11:41

Gidon Kremer / Historical Russian Archives Cd08

Used drive : PLEXTOR CD-R PREMIUM2 Adapter: 1 ID: 1

Read mode : Secure
Utilize accurate stream : Yes
Defeat audio cache : Yes
Make use of C2 pointers : No

Read offset correction : 30
Overread into Lead-In and Lead-Out : No
Fill up missing offset samples with silence : Yes
Delete leading and trailing silent blocks : No
Null samples used in CRC calculations : Yes
Used interface : Installed external ASPI interface
Gap handling : Appended to previous track

Used output format : User Defined Encoder
Selected bitrate : 32 kBit/s
Quality : High
Add ID3 tag : No
Command line compressor : C:\Programmi\FLAC\flac.exe
Additional command line options : -8 -V -T "ARTIST=%a" -T "TITLE=%t" -T "ALBUM=%g" -T "DATE=%y" -T "TRACKNUMBER=%n" -T "GENRE=%m" -T "COMMENT=EAC FLAC -8" %s


TOC of the extracted CD

Track | Start | Length | Start sector | End sector
––––––––––––––––––––––––––––-
1 | 0:00.00 | 7:47.28 | 0 | 35052
2 | 7:47.28 | 5:26.15 | 35053 | 59517
3 | 13:13.43 | 6:08.08 | 59518 | 87125
4 | 19:21.51 | 4:29.61 | 87126 | 107361
5 | 23:51.37 | 5:00.12 | 107362 | 129873
6 | 28:51.49 | 4:47.57 | 129874 | 151455
7 | 33:39.31 | 7:45.09 | 151456 | 186339
8 | 41:24.40 | 0:53.24 | 186340 | 190338
9 | 42:17.64 | 1:22.64 | 190339 | 196552
10 | 43:40.53 | 0:49.08 | 196553 | 200235
11 | 44:29.61 | 1:20.64 | 200236 | 206299
12 | 45:50.50 | 9:02.63 | 206300 | 247012


Track 1

Filename C:\My Rip\01 - Karayev-Concerto For Violin & Orchestra-Allegro Moderato.wav

Pre-gap length 0:00:02.00

Peak level 52.9 %
Track quality 100.0 %
Test CRC 1C046E30
Copy CRC 1C046E30
Track not present in AccurateRip database
Copy OK

Track 2

Filename C:\My Rip\02 - Karayev-Concerto For Violin & Orchestra-Andante.wav

Peak level 48.5 %
Track quality 100.0 %
Test CRC 3B37CBFF
Copy CRC 3B37CBFF
Track not present in AccurateRip database
Copy OK

Track 3

Filename C:\My Rip\03 - Karayev-Concerto For Violin & Orchestra-Allegro Ben Marcato.wav

Peak level 52.4 %
Track quality 100.0 %
Test CRC 11EC7233
Copy CRC 11EC7233
Track not present in AccurateRip database
Copy OK

Track 4

Filename C:\My Rip\04 - Salmanov-Sonata For Violin & Piano No 2-Allegro Molto.wav

Peak level 83.7 %
Track quality 100.0 %
Test CRC 63C372E9
Copy CRC 63C372E9
Track not present in AccurateRip database
Copy OK

Track 5

Filename C:\My Rip\05 - Salmanov-Sonata For Violin & Piano No 2-Andante.wav

Peak level 79.9 %
Track quality 100.0 %
Test CRC 3FAB6BD3
Copy CRC 3FAB6BD3
Track not present in AccurateRip database
Copy OK

Track 6

Filename C:\My Rip\06 - Salmanov-Sonata For Violin & Piano No 2-Presto.wav

Peak level 79.9 %
Track quality 100.0 %
Test CRC 2B324A62
Copy CRC 2B324A62
Track not present in AccurateRip database
Copy OK

Track 7

Filename C:\My Rip\07 - Schoenberg-Fantasy For Violin & Piano.wav

Peak level 58.8 %
Track quality 100.0 %
Test CRC F9AB473C
Copy CRC F9AB473C
Track not present in AccurateRip database
Copy OK

Track 8

Filename C:\My Rip\08 - Webern-4 Pieces Op 7-Sehr Langsam.wav

Peak level 25.7 %
Track quality 100.0 %
Test CRC FD33D0AC
Copy CRC FD33D0AC
Track not present in AccurateRip database
Copy OK

Track 9

Filename C:\My Rip\09 - Webern-4 Pieces Op 7-Rasch.wav

Peak level 72.2 %
Track quality 100.0 %
Test CRC 7D18479D
Copy CRC 7D18479D
Track not present in AccurateRip database
Copy OK

Track 10

Filename C:\My Rip\10 - Webern-4 Pieces Op 7-Sehr Langsam.wav

Peak level 8.5 %
Track quality 100.0 %
Test CRC 20F46962
Copy CRC 20F46962
Track not present in AccurateRip database
Copy OK

Track 11

Filename C:\My Rip\11 - Webern-4 Pieces Op 7-Bewegt.wav

Peak level 64.1 %
Track quality 100.0 %
Test CRC F92F0617
Copy CRC F92F0617
Track not present in AccurateRip database
Copy OK

Track 12

Filename C:\My Rip\12 - Stockhausen-Excerpts From Tierkreis-Aquarius-Gemini-Pisces-Libra-Sagittarius-Leo.wav

Peak level 54.4 %
Track quality 100.0 %
Test CRC AC61BF37
Copy CRC AC61BF37
Track not present in AccurateRip database
Copy OK


None of the tracks are present in the AccurateRip database

No errors occurred

End of status report
Exact Audio Copy V0.99 prebeta 4 from 23. January 2008

EAC extraction logfile from 5. July 2008, 12:29

Gidon Kremer / Historical Russian Archives Cd09

Used drive : PLEXTOR CD-R PREMIUM2 Adapter: 1 ID: 1

Read mode : Secure
Utilize accurate stream : Yes
Defeat audio cache : Yes
Make use of C2 pointers : No

Read offset correction : 30
Overread into Lead-In and Lead-Out : No
Fill up missing offset samples with silence : Yes
Delete leading and trailing silent blocks : No
Null samples used in CRC calculations : Yes
Used interface : Installed external ASPI interface
Gap handling : Appended to previous track

Used output format : User Defined Encoder
Selected bitrate : 32 kBit/s
Quality : High
Add ID3 tag : No
Command line compressor : C:\Programmi\FLAC\flac.exe
Additional command line options : -8 -V -T "ARTIST=%a" -T "TITLE=%t" -T "ALBUM=%g" -T "DATE=%y" -T "TRACKNUMBER=%n" -T "GENRE=%m" -T "COMMENT=EAC FLAC -8" %s


TOC of the extracted CD

Track | Start | Length | Start sector | End sector
––––––––––––––––––––––––––––-
1 | 0:00.00 | 3:33.18 | 0 | 15992
2 | 3:33.18 | 4:42.44 | 15993 | 37186
3 | 8:15.62 | 5:43.61 | 37187 | 62972
4 | 13:59.48 | 5:29.54 | 62973 | 87701
5 | 19:29.27 | 7:16.16 | 87702 | 120417
6 | 26:45.43 | 3:47.42 | 120418 | 137484
7 | 30:33.10 | 3:06.60 | 137485 | 151494
8 | 33:39.70 | 6:59.15 | 151495 | 182934
9 | 40:39.10 | 4:44.15 | 182935 | 204249
10 | 45:23.25 | 4:24.06 | 204250 | 224055
11 | 49:47.31 | 4:40.56 | 224056 | 245111
12 | 54:28.12 | 6:08.71 | 245112 | 272782


Track 1

Filename C:\My Rip\01 - Martynov-Come In! For Violin & Ensemble-Movement 1.wav

Pre-gap length 0:00:02.00

Peak level 51.8 %
Track quality 100.0 %
Test CRC 887C9974
Copy CRC 887C9974
Track not present in AccurateRip database
Copy OK

Track 2

Filename C:\My Rip\02 - Martynov-Come In! For Violin & Ensemble-Movement 2.wav

Peak level 41.8 %
Track quality 99.9 %
Test CRC 7EC8465B
Copy CRC 7EC8465B
Track not present in AccurateRip database
Copy OK

Track 3

Filename C:\My Rip\03 - Martynov-Come In! For Violin & Ensemble-Movement 3.wav

Peak level 77.1 %
Track quality 100.0 %
Test CRC 623057F4
Copy CRC 623057F4
Track not present in AccurateRip database
Copy OK

Track 4

Filename C:\My Rip\04 - Martynov-Come In! For Violin & Ensemble-Movement 4.wav

Peak level 53.7 %
Track quality 99.9 %
Test CRC 7375A31F
Copy CRC 7375A31F
Track not present in AccurateRip database
Copy OK

Track 5

Filename C:\My Rip\05 - Martynov-Come In! For Violin & Ensemble-Movement 5.wav

Peak level 63.0 %
Track quality 100.0 %
Test CRC 624FC65D
Copy CRC 624FC65D
Track not present in AccurateRip database
Copy OK

Track 6

Filename C:\My Rip\06 - Martynov-Come In! For Violin & Ensemble-Movement 6.wav

Peak level 85.4 %
Track quality 100.0 %
Test CRC 4478915F
Copy CRC 4478915F
Track not present in AccurateRip database
Copy OK

Track 7

Filename C:\My Rip\07 - Louri-Concerto Da Camera For Violin & String Orchestra-Entrata-Allegro Capriccioso-Ma Non Rubato.wav

Peak level 69.6 %
Track quality 100.0 %
Test CRC D63D948D
Copy CRC D63D948D
Track not present in AccurateRip database
Copy OK

Track 8

Filename C:\My Rip\08 - Martynov-Come In! For Violin & Ensemble-Aria-Lento Ma Non Troppo.wav

Peak level 72.6 %
Track quality 100.0 %
Test CRC FE3EFF69
Copy CRC FE3EFF69
Track not present in AccurateRip database
Copy OK

Track 9

Filename C:\My Rip\09 - Martynov-Come In! For Violin & Ensemble-Intermezzo-Languido Quasi Adagio.wav

Peak level 72.0 %
Track quality 100.0 %
Test CRC DF77217A
Copy CRC DF77217A
Track not present in AccurateRip database
Copy OK

Track 10

Filename C:\My Rip\10 - Martynov-Come In! For Violin & Ensemble-Fantasia-Allegro Molto Appasionato-Ma Sempre Dolcissimo.wav

Peak level 72.3 %
Track quality 100.0 %
Test CRC AFB8E4C3
Copy CRC AFB8E4C3
Track not present in AccurateRip database
Copy OK

Track 11

Filename C:\My Rip\11 - Martynov-Come In! For Violin & Ensemble-Serenata-Moderato.wav

Peak level 56.1 %
Track quality 100.0 %
Test CRC 1AA3AD9A
Copy CRC 1AA3AD9A
Track not present in AccurateRip database
Copy OK

Track 12

Filename C:\My Rip\12 - Louri-Concerto Da Camera For Violin & String Orchestra-Epilogo.wav

Peak level 100.0 %
Track quality 99.9 %
Test CRC 08E8E598
Copy CRC 08E8E598
Track not present in AccurateRip database
Copy OK


None of the tracks are present in the AccurateRip database

No errors occurred

End of status report
Exact Audio Copy V0.99 prebeta 4 from 23. January 2008

EAC extraction logfile from 5. July 2008, 13:00

Gidon Kremer / Historical Russian Archives Cd10

Used drive : PLEXTOR CD-R PREMIUM2 Adapter: 1 ID: 1

Read mode : Secure
Utilize accurate stream : Yes
Defeat audio cache : Yes
Make use of C2 pointers : No

Read offset correction : 30
Overread into Lead-In and Lead-Out : No
Fill up missing offset samples with silence : Yes
Delete leading and trailing silent blocks : No
Null samples used in CRC calculations : Yes
Used interface : Installed external ASPI interface
Gap handling : Appended to previous track

Used output format : User Defined Encoder
Selected bitrate : 32 kBit/s
Quality : High
Add ID3 tag : No
Command line compressor : C:\Programmi\FLAC\flac.exe
Additional command line options : -8 -V -T "ARTIST=%a" -T "TITLE=%t" -T "ALBUM=%g" -T "DATE=%y" -T "TRACKNUMBER=%n" -T "GENRE=%m" -T "COMMENT=EAC FLAC -8" %s


TOC of the extracted CD

Track | Start | Length | Start sector | End sector
––––––––––––––––––––––––––––-
1 | 0:00.00 | 4:03.19 | 0 | 18243
2 | 4:03.19 | 6:26.18 | 18244 | 47211
3 | 10:29.37 | 3:41.50 | 47212 | 63836
4 | 14:11.12 | 7:48.56 | 63837 | 98992
5 | 21:59.68 | 4:12.21 | 98993 | 117913
6 | 26:12.14 | 7:54.46 | 117914 | 153509
7 | 34:06.60 | 4:57.17 | 153510 | 175801
8 | 39:04.02 | 1:33.65 | 175802 | 182841
9 | 40:37.67 | 0:38.60 | 182842 | 185751
10 | 41:16.52 | 1:54.32 | 185752 | 194333
11 | 43:11.09 | 3:39.01 | 194334 | 210759
12 | 46:50.10 | 2:19.17 | 210760 | 221201
13 | 49:09.27 | 2:40.67 | 221202 | 233268
14 | 51:50.19 | 1:01.39 | 233269 | 237882


Track 1

Filename C:\My Rip\01 - Paganini-Cantabile In D Major For Violin & Piano.wav

Pre-gap length 0:00:02.00

Peak level 58.1 %
Track quality 100.0 %
Test CRC 7F0A5759
Copy CRC 7F0A5759
Track not present in AccurateRip database
Copy OK

Track 2

Filename C:\My Rip\02 - Paganini-Caprice No 4 In C Minor (Maestosa).wav

Peak level 63.8 %
Track quality 100.0 %
Test CRC DF992E56
Copy CRC DF992E56
Track not present in AccurateRip database
Copy OK

Track 3

Filename C:\My Rip\03 - Paganini-Caprice No 17 In E Flat Major.wav

Peak level 66.4 %
Track quality 100.0 %
Test CRC 8992EA15
Copy CRC 8992EA15
Track not present in AccurateRip database
Copy OK

Track 4

Filename C:\My Rip\04 - Ernst-Variations On An Irish Air The Last Rose Of Summer.wav

Peak level 72.9 %
Track quality 100.0 %
Test CRC CF1DD4AA
Copy CRC CF1DD4AA
Track not present in AccurateRip database
Copy OK

Track 5

Filename C:\My Rip\05 - Ernst-Grand Caprice For Solo Violin After Schubert's Erlk Nig.wav

Peak level 59.9 %
Track quality 100.0 %
Test CRC 4FB2CED9
Copy CRC 4FB2CED9
Track not present in AccurateRip database
Copy OK

Track 6

Filename C:\My Rip\06 - Bartok-Tempo Di Ciacona, From Sonata For Solo Violin.wav

Peak level 67.2 %
Track quality 100.0 %
Test CRC AD91EB0E
Copy CRC AD91EB0E
Track not present in AccurateRip database
Copy OK

Track 7

Filename C:\My Rip\07 - Stravinsky-Elegy, For Solo Violin.wav

Peak level 62.2 %
Track quality 100.0 %
Test CRC 1E5DF6DC
Copy CRC 1E5DF6DC
Track not present in AccurateRip database
Copy OK

Track 8

Filename C:\My Rip\08 - Berio-Duet For Violins Leonardo.wav

Peak level 40.9 %
Track quality 100.0 %
Test CRC CB1A8A2C
Copy CRC CB1A8A2C
Track not present in AccurateRip database
Copy OK

Track 9

Filename C:\My Rip\09 - Berio-Duet For Violins Annie.wav

Peak level 58.8 %
Track quality 100.0 %
Test CRC 4E70AB6E
Copy CRC 4E70AB6E
Track not present in AccurateRip database
Copy OK

Track 10

Filename C:\My Rip\10 - Berio-Duet For Violins Aldo.wav

Peak level 64.4 %
Track quality 100.0 %
Test CRC 21A960FC
Copy CRC 21A960FC
Track not present in AccurateRip database
Copy OK

Track 11

Filename C:\My Rip\11 - Shchedrin-In The Style Of Albeniz.wav

Peak level 79.7 %
Track quality 100.0 %
Test CRC EF9077B2
Copy CRC EF9077B2
Track not present in AccurateRip database
Copy OK

Track 12

Filename C:\My Rip\12 - Dinicu-Hora Staccato.wav

Peak level 69.3 %
Track quality 100.0 %
Test CRC 77165A1B
Copy CRC 77165A1B
Track not present in AccurateRip database
Copy OK

Track 13

Filename C:\My Rip\13 - Borzo-Bihari-Csardas In A Minor.wav

Peak level 58.0 %
Track quality 100.0 %
Test CRC 098AE8BA
Copy CRC 098AE8BA
Track not present in AccurateRip database
Copy OK

Track 14

Filename C:\My Rip\14 - Saint-Saens-Creatures With Long Ears.wav

Peak level 57.7 %
Track quality 100.0 %
Test CRC 56F6A1F2
Copy CRC 56F6A1F2
Track not present in AccurateRip database
Copy OK


None of the tracks are present in the AccurateRip database

No errors occurred

End of status report

Disc 1
1. Bach-Ciacona-From Partita For Violin Solo In D Minor BWV 1004
2. Bach-Partita For Viollin Solo In E Major BWV 1006-1-Preludio
3. Bach-Partita For Viollin Solo In E Major BWV 1006-2-Loure
4. Bach-Partita For Viollin Solo In E Major BWV 1006-3-Gavotte En Rondeau
5. Bach-Partita For Viollin Solo In E Major BWV 1006-4-Menuet I
6. Bach-Partita For Viollin Solo In E Major BWV 1006-5-Menuet II
7. Bach-Partita For Viollin Solo In E Major BWV 1006-6-Bourree
8. Bach-Partita For Viollin Solo In E Major BWV 1006-7-Gigue
9. Bach-From Sonata For Violin Solo In A Minor BWV 1003-1-Grave
10. Bach-From Sonata For Violin Solo In A Minor BWV 1003-2-Fugue
11. Bach. Concerto For 2 Violon & Orchestra In D Minor BWV 1043-1-Vivace
12. Bach. Concerto For 2 Violon & Orchestra In D Minor BWV 1043-2-Largo Ma Non Troppo
13. Bach. Concerto For 2 Violon & Orchestra In D Minor BWV 1043-3-Allegro

Disc 2
1. Mozart-Violin Concerto No 2 D Major KV 211-1-Allegro Moderato
2. Mozart-Violin Concerto No 2 D Major KV 211-2-Andante
3. Mozart-Violin Concerto No 2 D Major KV 211-3-Rondo Allegro
4. Mozart-Concertione For 2 Violins & Orchestra In C Major KV 190-1-Allegron Con Spirito
5. Mozart-Concertione For 2 Violins & Orchestra In C Major KV 190-2-Andante Grazioso
6. Mozart-Concertione For 2 Violins & Orchestra In C Major KV 190-3-Tempo Di Menuetto
7. Mozart-Violin Concerto No 3 In G Major KV216-Allegro (Transcript. For Violin & Piano)
8. Mozart-Concertione For 2 Violins & Orchestra In C Major KV 190-1-Andante
9. Mozart-Concertione For 2 Violins & Orchestra In C Major KV 190-2-Allegretto
10. Boccherini-Menuet From String Quintet In E Major G 275

Disc 3
1. Beethoven-Violin Sonata In G Major Op 46-1-Allegro Moderato
2. Beethoven-Violin Sonata In G Major Op 46-2-Adagio Espressivo
3. Beethoven-Violin Sonata In G Major Op 46-3-Scherzo, Allegro
4. Beethoven-Violin Sonata In G Major Op 46-4-Poco Allegretto
5. Beethoven-Variation In F Major On Mozart's-Se Vuol'ballare
6. Beethoven-6 German Dances
7. Biber-Ciacona From Mystery Sonata No 4 In D Minor-The Presentation
8. Teleman-Sonata En Canon In A Minor For 2 Violin Op 5 No 6-1-Vivace
9. Teleman-Sonata En Canon In A Minor For 2 Violin Op 5 No 6-2-Soave
10. Teleman-Sonata En Canon In A Minor For 2 Violin Op 5 No 6-3-Allegro Assai
11. Teleman-Sonata En Canon In G Major Op 5 No 1-1-Vivace
12. Teleman-Sonata En Canon In G Major Op 5 No 1-2-Adagio
13. Teleman-Sonata En Canon In G Major Op 5 No 1-3-Allegro

Disc 4
1. Schubert-Rondo For Violin & Strings In A Major D 438
2. Schubert-Theme & Variations On Trockne Blumen
3. Schubert-Rondo Brillant In B Minor D 895-1-Andante
4. Schubert-Rondo Brillant In B Minor D 895-2-Allegro
5. Tchaikovsky-Valse Scherzo
6. Tchaikovsky-Melodie-From Souvenir D'un Lieu Cher-Op 42

Disc 5
1. Mendelssohn-Concerto For Violin & String In D Minor-1-Allegro Molto
2. Mendelssohn-Concerto For Violin & String In D Minor-2-Andante
3. Mendelssohn-Concerto For Violin & String In D Minor-3-Allegro
4. Chausson-Poeme For Violin And Piano Op 25
5. Ysaye-Sonata For Solo Violin Op 27 No 5-1-L'aurore
6. Ysaye-Sonata For Solo Violin Op 27 No 5-2-Danse Rustique
7. Ysaye-Sonata For Violin & Piano In F Minor After Locatelli-1-Lento Assai E Mesto
8. Ysaye-Sonata For Violin & Piano In F Minor After Locatelli-2-Allegro
9. Ysaye-Sonata For Violin & Piano In F Minor After Locatelli-3-Lento
10. Ysaye-Sonata For Violin & Piano In F Minor After Locatelli-4-Tempo Moderato
11. Ravel-Blues From Violin Sonata

Disc 6
1. Strauss-Violin Sonata In E Flat Major Op 18-1-Allegro Ma Non Troppo
2. Strauss-Violin Sonata In E Flat Major Op 18-2-Improvisation-Andante Cantabile
3. Strauss-Violin Sonata In E Flat Major Op 18-3-Finale-Andante Allegro
4. Reger-Violin Sonata In C Minor Op 139-1-Con Passione
5. Reger-Violin Sonata In C Minor Op 139-2-Largo
6. Reger-Violin Sonata In C Minor Op 139-3-Vivace
7. Reger-Violin Sonata In C Minor Op 139-4-Andantino Con Variazioni

Disc 7
1. Prokofiev-Violin Sonata No 1 In F Minor Op 80-1-Andante Assai
2. Prokofiev-Violin Sonata No 1 In F Minor Op 80-2-Allegro Brusco
3. Prokofiev-Violin Sonata No 1 In F Minor Op 80-3-Andante
4. Prokofiev-Violin Sonata No 1 In F Minor Op 80-4-Allegrissimo-Andante Assai Come Prima
5. Prokofiev-Scherzo-Vivacissimo-From Violin Concerto No 1 In D Major Op 19-Transcription
6. Prokofiev-Sonata For 2 Violins In C Major Op 56-1-Andante Cantabile
7. Prokofiev-Sonata For 2 Violins In C Major Op 56-2-Allegro
8. Prokofiev-Sonata For 2 Violins In C Major Op 56-3-Commodo
9. Prokofiev-Sonata For 2 Violins In C Major Op 56-4-Allegro Con Brio
10. Kupkovic-Souvenir

Disc 8
1. Karayev-Concerto For Violin & Orchestra-Allegro Moderato
2. Karayev-Concerto For Violin & Orchestra-Andante
3. Karayev-Concerto For Violin & Orchestra-Allegro Ben Marcato
4. Salmanov-Sonata For Violin & Piano No 2-Allegro Molto
5. Salmanov-Sonata For Violin & Piano No 2-Andante
6. Salmanov-Sonata For Violin & Piano No 2-Presto
7. Schoenberg-Fantasy For Violin & Piano
8. Webern-4 Pieces Op 7-Sehr Langsam
9. Webern-4 Pieces Op 7-Rasch
10. Webern-4 Pieces Op 7-Sehr Langsam
11. Webern-4 Pieces Op 7-Bewegt
12. Stockhausen-Excerpts From Tierkreis-Aquarius-Gemini-Pisces-Libra-Sagittarius-Leo

Disc 9
1. Martynov-Come In! For Violin & Ensemble-Movement 1
2. Martynov-Come In! For Violin & Ensemble-Movement 2
3. Martynov-Come In! For Violin & Ensemble-Movement 3
4. Martynov-Come In! For Violin & Ensemble-Movement 4
5. Martynov-Come In! For Violin & Ensemble-Movement 5
6. Martynov-Come In! For Violin & Ensemble-Movement 6
7. Louri-Concerto Da Camera For Violin & String Orchestra-Entrata-Allegro Capriccioso-Ma Non Rubato
8. Martynov-Come In! For Violin & Ensemble-Aria-Lento Ma Non Troppo
9. Martynov-Come In! For Violin & Ensemble-Intermezzo-Languido Quasi Adagio
10. Martynov-Come In! For Violin & Ensemble-Fantasia-Allegro Molto Appasionato-Ma Sempre Dolcissimo
11. Martynov-Come In! For Violin & Ensemble-Serenata-Moderato
12. Louri-Concerto Da Camera For Violin & String Orchestra-Epilogo

Disc 10
1. Paganini-Cantabile In D Major For Violin & Piano
2. Paganini-Caprice No 4 In C Minor (Maestosa)
3. Paganini-Caprice No 17 In E Flat Major
4. Ernst-Variations On An Irish Air The Last Rose Of Summer
5. Ernst-Grand Caprice For Solo Violin After Schubert's Erlk Nig
6. Bartok-Tempo Di Ciacona, From Sonata For Solo Violin
7. Stravinsky-Elegy, For Solo Violin
8. Berio-Duet For Violins Leonardo
9. Berio-Duet For Violins Annie
10. Berio-Duet For Violins Aldo
11. Shchedrin-In The Style Of Albeniz
12. Dinicu-Hora Staccato
13. Borzo-Bihari-Csardas In A Minor
14. Saint-Saens-Creatures With Long Ears


thx to the uploader!

updated links (29 Jul 2011):
Uploading
Filesonic

pass: xax

plz no mirror