Subcategories

Gillan - Gillan: The Japanese Album (1978/79) {1993, Reissue}

Posted By: popsakov
Gillan - Gillan: The Japanese Album (1978/79) {1993, Reissue}

Gillan - Gillan: The Japanese Album (1978/79) {1993, Reissue}
EAC Rip | WV (Img) + Cue + Log ~ 384 Mb | MP3 CBR320 ~ 143 Mb
Scans (PNG, 300 dpi) ~ 179 Mb | RAR 5% Recovery
Hard Rock | RPM Records #RPM 113

Gillan is the first album by British rock band Gillan, released in September 1978. It was only released in Japan, Australia and New Zealand, but the album sold well in the UK as an import, aided by positive press reviews. In 1993 an album combining tracks from the Japan/Australia/New Zealand version of the Gillan and the Mr. Universe was released in CD format by the RPM record label under the title "Gillan – The Japanese Album".
~ Wiki

After the Ian Gillan Band started to fizzle out, vocalist Gillan and keyboard player Colin Towns decided to shorten the group's name and shift its musical approach. The newly created Gillan consisted of the ex-Deep Purple vocalist, Towns, and former Zzebra members Liam Genockey on drums, Steve Byrd on guitar, and John McCoy on bass. Their 1978 eponymous debut was distributed in Japan, Australia, and New Zealand only, then reissued with some bonus material as The Japanese Album by RPM records in 1993, and again on the Purple label in 1999. These offerings also share a few tracks with the 1979 U.K. debut, Mr. Universe. There were, of course, several membership changes to confuse things even further while the band attempted to establish creative momentum. One interesting fact: Genockey is credited on the original release, but replacement Pete Barnacle is listed as the drummer of record on The Japanese Album. Another lineup overhaul was necessary before Gillan could produce its most successful effort by far, 1980's Glory Road. Despite all this activity, Gillan is still a minor excursion in the career journey of the Deep Purple vocalist. And The Japanese Album is a lesser work from the band that bore his name. Gillan's voice is refined, but isn't put to good use on ballads like "Fighting Man." There are some good moments on "Secret of the Dance" and a few others, but The Japanese Album is generally an unfocused affair. Only Gillan fanatics and collectors should concern themselves with this reissue.
~ Jason Anderson, All Music
Gillan - Gillan: The Japanese Album (1978/79) {1993, Reissue}


***************

Gillan - Gillan: The Japanese Album (1978/79) {1993, Reissue}

Gillan - Gillan: The Japanese Album (1978/79) {1993, Reissue}

Track List:

01. Street Theatre [2:40]
02. Secret Of The Dance [2:51]
03. I'm Your Man [4:25]
04. Dead Of Night [4:11]
05. Fighting Man [7:37]
06. Message In A Bottle [3:10]
07. Not Weird Enough [3:51]
08. Bringing Joanna Back [3:41]
09. Abbey Of Thelema [4:56]
10. Back In The Game [5:28]
11. Vengeance [3:30]
12. Move With The Times [5:02]
13. Sleeping On The Job [3:12]
14. Roller [4:06]

Personnel:
Ian Gillan – vocals
Colin Towns – keyboards and flutes
John McCoy – bass guitar
Steve Byrd – guitar
Liam Genockey – drums and percussion (performed on the record)
Pete Barnacle – drums and percussion (live shows)

Exact Audio Copy V1.0 beta 3 from 29. August 2011

EAC extraction logfile from 30. December 2012, 22:56

Gillan / Gillan - The Japanese Album

Used drive : HL-DT-STBDDVDRW GBC-H20N Adapter: 1 ID: 0

Read mode : Secure
Utilize accurate stream : Yes
Defeat audio cache : Yes
Make use of C2 pointers : No

Read offset correction : 667
Overread into Lead-In and Lead-Out : No
Fill up missing offset samples with silence : Yes
Delete leading and trailing silent blocks : No
Null samples used in CRC calculations : Yes
Used interface : Native Win32 interface for Win NT & 2000

Used output format : User Defined Encoder
Selected bitrate : 1024 kBit/s
Quality : High
Add ID3 tag : No
Command line compressor : C:\Program Files\Exact Audio Copy\wavpack.exe
Additional command line options : -hm %source% %dest%


TOC of the extracted CD

Track | Start | Length | Start sector | End sector
––––––––––––––––––––––––––––-
1 | 0:00.33 | 2:39.62 | 33 | 12019
2 | 2:40.20 | 2:51.10 | 12020 | 24854
3 | 5:31.30 | 4:25.08 | 24855 | 44737
4 | 9:56.38 | 4:11.35 | 44738 | 63597
5 | 14:07.73 | 7:37.00 | 63598 | 97872
6 | 21:44.73 | 3:10.17 | 97873 | 112139
7 | 24:55.15 | 3:51.03 | 112140 | 129467
8 | 28:46.18 | 3:40.70 | 129468 | 146037
9 | 32:27.13 | 4:56.30 | 146038 | 168267
10 | 37:23.43 | 5:27.55 | 168268 | 192847
11 | 42:51.23 | 3:30.20 | 192848 | 208617
12 | 46:21.43 | 5:01.45 | 208618 | 231237
13 | 51:23.13 | 3:12.37 | 231238 | 245674
14 | 54:35.50 | 4:06.08 | 245675 | 264132


Range status and errors

Selected range

Filename C:\Users\ProgDog\Music\ZALIVKI\Single albums\Ian Gillan\New folder\Gillan - Gillan - The Japanese Album.wav

Peak level 98.6 %
Extraction speed 6.2 X
Range quality 100.0 %
Test CRC D2DE55D8
Copy CRC D2DE55D8
Copy OK

No errors occurred


AccurateRip summary

Track 1 accurately ripped (confidence 4) [8A40DF1F] (AR v1)
Track 2 accurately ripped (confidence 4) [6D89E5DF] (AR v1)
Track 3 accurately ripped (confidence 4) [2925A6EF] (AR v1)
Track 4 accurately ripped (confidence 4) [C243BDDE] (AR v1)
Track 5 accurately ripped (confidence 5) [FC9C9F2D] (AR v1)
Track 6 accurately ripped (confidence 5) [EB2A8796] (AR v1)
Track 7 accurately ripped (confidence 4) [EBC24B2E] (AR v1)
Track 8 accurately ripped (confidence 4) [B1B46076] (AR v1)
Track 9 accurately ripped (confidence 4) [F545F02D] (AR v1)
Track 10 accurately ripped (confidence 4) [DD4D1470] (AR v1)
Track 11 accurately ripped (confidence 4) [36F860A4] (AR v1)
Track 12 accurately ripped (confidence 4) [2383A165] (AR v1)
Track 13 accurately ripped (confidence 4) [5C3DBD29] (AR v1)
Track 14 accurately ripped (confidence 4) [FA8AAFAB] (AR v1)

All tracks accurately ripped

End of status report

–– CUETools DB Plugin V2.1.3

[CTDB TOCID: .9jm4wJybYCscYDiPAOHHdsYyDQ-] disk not present in database, Submit result: discs with pregaps not supported in this protocol version


==== Log checksum E3357C279F1E8FBE942CCD24744D201945F6B07031E28B47FB414FA786B9F4CF ====

foobar2000 1.2.6 / Dynamic Range Meter 1.1.1
log date: 2017-06-08 13:29:45

––––––––––––––––––––––––––––––––––––––––
Analyzed: Gillan / Gillan: The Japanese Album
––––––––––––––––––––––––––––––––––––––––

DR Peak RMS Duration Track
––––––––––––––––––––––––––––––––––––––––
DR9 -0.54 dB -15.44 dB 2:40 01-Street Theatre
DR9 -0.42 dB -10.77 dB 2:51 02-Secret Of The Dance
DR10 -0.27 dB -12.85 dB 4:25 03-I'm Your Man
DR10 -0.29 dB -12.31 dB 4:11 04-Dead Of Night
DR10 -0.45 dB -14.04 dB 7:37 05-Fighting Man
DR10 -0.20 dB -11.25 dB 3:10 06-Message In A Bottle
DR10 -0.41 dB -12.62 dB 3:51 07-Not Weird Enough
DR11 -0.48 dB -13.43 dB 3:41 08-Bringing Joanna Back
DR10 -0.47 dB -14.17 dB 4:56 09-Abbey Of Thelema
DR9 -0.12 dB -11.32 dB 5:28 10-Back In The Game
DR10 -0.44 dB -12.78 dB 3:30 11-Vengeance
DR11 -0.27 dB -12.58 dB 5:02 12-Move With The Times
DR9 -0.43 dB -10.94 dB 3:12 13-Sleeping On The Job
DR10 -0.70 dB -11.61 dB 4:06 14-Roller
––––––––––––––––––––––––––––––––––––––––

Number of tracks: 14
Official DR value: DR10

Samplerate: 44100 Hz
Channels: 2
Bits per sample: 16
Bitrate: 870 kbps
Codec: WavPack
================================================================================

[CUETools log; Date: 08.06.2017 12:29:21; Version: 2.1.5]
Pregap length 00:00:33.
[CTDB TOCID: .9jm4wJybYCscYDiPAOHHdsYyDQ-] found.
Track | CTDB Status
1 | (7/7) Accurately ripped
2 | (7/7) Accurately ripped
3 | (7/7) Accurately ripped
4 | (7/7) Accurately ripped
5 | (7/7) Accurately ripped
6 | (7/7) Accurately ripped
7 | (7/7) Accurately ripped
8 | (7/7) Accurately ripped
9 | (7/7) Accurately ripped
10 | (7/7) Accurately ripped
11 | (7/7) Accurately ripped
12 | (7/7) Accurately ripped
13 | (7/7) Accurately ripped
14 | (7/7) Accurately ripped
[AccurateRip ID: 001da027-0140ef8f-dc0dc10e] found.
Track [ CRC | V2 ] Status
01 [8a40df1f|53625eac] (04+07/18) Accurately ripped
02 [6d89e5df|9d1d979f] (04+07/18) Accurately ripped
03 [2925a6ef|5c917f9f] (04+07/18) Accurately ripped
04 [c243bdde|6b99535d] (04+07/18) Accurately ripped
05 [fc9c9f2d|0643a6d9] (05+07/19) Accurately ripped
06 [eb2a8796|d843bcf2] (05+07/19) Accurately ripped
07 [ebc24b2e|23c62b63] (04+06/17) Accurately ripped
08 [b1b46076|8b7f0b62] (04+07/18) Accurately ripped
09 [f545f02d|df3fd17c] (04+07/18) Accurately ripped
10 [dd4d1470|c328beb1] (04+07/18) Accurately ripped
11 [36f860a4|ae805a72] (04+07/18) Accurately ripped
12 [2383a165|32625369] (04+07/18) Accurately ripped
13 [5c3dbd29|1bcdbf66] (04+07/18) Accurately ripped
14 [fa8aafab|97484fe0] (04+04/15) Accurately ripped
Offsetted by 1304:
01 [0ebed83c] (03/18) Accurately ripped
02 [0526660a] (03/18) Accurately ripped
03 [ebf1b7df] (03/18) Accurately ripped
04 [c75920fe] (03/18) Accurately ripped
05 [112c8a85] (03/19) Accurately ripped
06 [52d54006] (03/19) Accurately ripped
07 [d2c1abfe] (03/17) Accurately ripped
08 [9333439e] (03/18) Accurately ripped
09 [7d98efbd] (03/18) Accurately ripped
10 [2e919d88] (03/18) Accurately ripped
11 [fab5f314] (03/18) Accurately ripped
12 [e537945d] (03/18) Accurately ripped
13 [132d1441] (03/18) Accurately ripped
14 [d29ed7b3] (03/15) Accurately ripped
Offsetted by 1571:
01 [2834dde5] (02/18) Accurately ripped
02 [d97b4843] (02/18) Accurately ripped
03 [2f1e400d] (02/18) Accurately ripped
04 [c7360c42] (02/18) Accurately ripped
05 [968fe618] (02/19) Accurately ripped
06 [ae89ada4] (02/19) Accurately ripped
07 [73eb5c48] (02/17) Accurately ripped
08 [3ae49b5b] (02/18) Accurately ripped
09 [e226011f] (02/18) Accurately ripped
10 [b1dbeb13] (02/18) Accurately ripped
11 [200a81f2] (02/18) Accurately ripped
12 [29ef1344] (02/18) Accurately ripped
13 [e017cd8c] (02/18) Accurately ripped
14 [7b54712c] (02/15) Accurately ripped

Track Peak [ CRC32 ] [W/O NULL] [ LOG ]
– 98,6 [D2DE55D8] [572C99AA] CRC32
01 93,9 [C64AFDF3] [1AB5F1C5]
02 95,3 [32C8F1CA] [E5BD92FE]
03 96,8 [889ECDFB] [9767D4DF]
04 96,7 [396830A4] [D7392EA3]
05 94,9 [C32D7297] [99278B1E]
06 97,6 [BBEEBBAD] [65CD2DEC]
07 95,4 [0B105445] [21D60E3C]
08 94,6 [68ACC3D1] [17763F30]
09 94,7 [83F55C51] [CAE7479D]
10 98,6 [1B452A0D] [762866F3]
11 95,1 [DEC25E08] [B651FFD8]
12 96,9 [18A79C3F] [74257480]
13 95,1 [D2A62836] [83890996]
14 92,2 [B7F3620B] [DB9CB8E6]

Gillan - Gillan: The Japanese Album (1978/79) {1993, Reissue}

All thanks go to AD's

>>> Ian Gillan in my Blog <<<

Download from icerbox.com: