Tags
Language
Tags

Gillian Welch - Revival (1996)

Posted By: tirexiss
Gillian Welch - Revival (1996)

Gillian Welch - Revival (1996)
EAC | FLAC (tracks+.cue, log) 252 MB | MP3 (CBR 320 kbps) - 108 MB | Covers Included | 41:37
Genre: Folk Rock, Country, Americana | Label: Almo Sounds | Catalog: AMSD-80006

After looking at the cover of Gillian Welch's debut album, Revival, and listening to the first two cuts, "Orphan Girl" and "Annabelle," you'd be tempted to imagine that Welch somehow stumbled into a time machine after cutting some tunes at the 1927 Bristol, TN, sessions and was transported to a recording studio in Los Angeles in 1996, where T-Bone Burnett was on hand and had the presence of mind to roll tape. It takes a closer listen to Revival to realize that Welch and her partner, David Rawlings, are not mere revivalists in the old-timey style; Welch's debts to artists of the past are obvious and clearly acknowledged, but there's a maturity, intelligence, and keen eye for detail in Welch's songs you wouldn't expect from someone simply trying to ape the Carter Family. What's more, the subtle, blues-shot menace of "Pass You By" and "Tear My Stillhouse Down" and the jazzy undertow of "Paper Wings" point to the breadth and depth of Welch's musical vision, which encompasses a spectrum broader than the rural musics of the 1920s and '30s. If Welch and Rawlings often reach to sounds and styles of the past on Revival, they do so with an unaffected sincerity and natural grace, and the album's best moments ("Orphan Girl," "One More Dollar," and "Tear My Stillhouse Down") are the work of a gifted singer and songwriter who knows how to communicate the sounds of her heart and soul to others, and producer Burnett gets those sounds on tape with unobtrusive skill. A superb debut.

Gillian Welch - Revival (1996)

Track List:

01. Orphan Girl (3:57)
02. Annabelle (4:04)
03. Pass You By (3:57)
04. Barroom Girls (4:14)
05. One More Dollar (4:35)
06. By The Mark (3:40)
07. Paper Wings (3:58)
08. Tear My Stillhouse Down (4:33)
09. Acony Bell (3:06)
10. Only One And Only (5:34)

EAC extraction logfile from 12. December 2006, 11:45 for CD
Gillian Welch / Revival

Used drive : SAMSUNG CD-R/RW SW-252B Adapter: 1 ID: 0
Read mode : Secure with NO C2, accurate stream, disable cache
Read offset correction : 97
Overread into Lead-In and Lead-Out : No

Used output format : Internal WAV Routines
44.100 Hz; 16 Bit; Stereo

Other options :
Fill up missing offset samples with silence : Yes
Delete leading and trailing silent blocks : No
Native Win32 interface for Win NT & 2000


Track 1
Filename C:\Documents and Settings\Steff\My Documents\Gillian Welch - Revival (1996)\01 - Orphan Girl.wav

Pre-gap length 0:00:02.00

Peak level 94.4 %
Track quality 100.0 %
Test CRC 8EEF5356
Copy CRC 8EEF5356
Copy OK

Track 2
Filename C:\Documents and Settings\Steff\My Documents\Gillian Welch - Revival (1996)\02 - Annabelle.wav

Pre-gap length 0:00:01.15

Peak level 92.0 %
Track quality 100.0 %
Test CRC B879C1CE
Copy CRC B879C1CE
Copy OK

Track 3
Filename C:\Documents and Settings\Steff\My Documents\Gillian Welch - Revival (1996)\03 - Pass You By.wav

Peak level 78.6 %
Track quality 100.0 %
Test CRC 7DD78B08
Copy CRC 7DD78B08
Copy OK

Track 4
Filename C:\Documents and Settings\Steff\My Documents\Gillian Welch - Revival (1996)\04 - Barroom Girls.wav

Peak level 66.4 %
Track quality 99.9 %
Test CRC 20040BDF
Copy CRC 20040BDF
Copy OK

Track 5
Filename C:\Documents and Settings\Steff\My Documents\Gillian Welch - Revival (1996)\05 - One More Dollar.wav

Peak level 85.6 %
Track quality 100.0 %
Test CRC FE31049E
Copy CRC FE31049E
Copy OK

Track 6
Filename C:\Documents and Settings\Steff\My Documents\Gillian Welch - Revival (1996)\06 - By The Mark.wav

Peak level 69.7 %
Track quality 100.0 %
Test CRC 6478A2C2
Copy CRC 6478A2C2
Copy OK

Track 7
Filename C:\Documents and Settings\Steff\My Documents\Gillian Welch - Revival (1996)\07 - Paper Wings.wav

Peak level 78.7 %
Track quality 99.9 %
Test CRC 81BF9A0D
Copy CRC 81BF9A0D
Copy OK

Track 8
Filename C:\Documents and Settings\Steff\My Documents\Gillian Welch - Revival (1996)\08 - Tear My Stillhouse Down.wav

Peak level 92.6 %
Track quality 100.0 %
Test CRC 4789ED0F
Copy CRC 4789ED0F
Copy OK

Track 9
Filename C:\Documents and Settings\Steff\My Documents\Gillian Welch - Revival (1996)\09 - Acony Bell.wav

Peak level 98.2 %
Track quality 100.0 %
Test CRC C5B58A62
Copy CRC C5B58A62
Copy OK

Track 10
Filename C:\Documents and Settings\Steff\My Documents\Gillian Welch - Revival (1996)\10 - Only One And Only.wav

Peak level 70.5 %
Track quality 100.0 %
Test CRC F18515D6
Copy CRC F18515D6
Copy OK

No errors occured


End of status report

Thanks to the Original ripper (unknown)!

Download: