Subcategories

Gioachino Rossini Edition 50 CDs [Part 10] - Giovanna d'Arco; Arias, Songs & Orchestral Music (2018)

Posted By: ArlegZ
Gioachino Rossini Edition 50 CDs [Part 10] - Giovanna d'Arco;  Arias, Songs & Orchestral Music (2018)

Gioachino Rossini Edition 50 CDs [Part 10]: Marilyn Horne, Martin Katz - Giovanna d'Arco et Ariette rare; Lella Cuberli, Luciana Serra, Elisabeth Schwarzkopf, Victoria de los Angeles, Samuel Ramey, Lawrence Brownlee, Max Emanuel Cencic, Marie-Nicole Lemieux, Jennifer Larmore, Thomas Hampson, Gerald Moore, Bruno Bartoletti, Alberto Zedda, Malcolm Sargent, Thomas Beecham, Claudio Scimone, Michael Hofstetter, Lamberto Gardelli, Jörg Faerber, Enrique Mazzola, Gabrile Ferro, Giuliano Carella - Arias, Songs & Orchestral Music (2018)
EAC | FLAC | Image (Cue & Log) ~ 1.18 Gb | Total time: 77:06+65:42+70:09+79:57 | Scans included
Classical | Label: Warner Classics | # 0190295611156 | Recorded: 1956-2015

The most comprehensive edition devoted to Gioachino Rossini marking his 150th anniversary.
Born in 1792, Rossini was the most popular opera composer of his time. Although he retired from the Opera scene in 1829, he continued to compose in other genres, including sacred music, piano and chamber works. He did gather his late works under the ironic title Péchés de vieillesse (Sins of Old Age), which veils a true collection of masterworks.

Performer:
CD41: Rossini: Giovanna d'Arco et Ariette rare (rec.:1981, 1982)
Marilyn Horne, mezzo soprano
Martin Katz, piano
Orchestra Sinfonica di Torino della Rai (12-15)
Alberto Zedda, conductor (12-15)

CD42: Rossini: Arias & Songs (rec.:1965, 1967, 1983)
Marilyn Horne, mezzo-soprano (1-5)
Orchestra sinfonica di Torino della Rai (1-5)
Alberto Zedda, conductor (1-5)
Lella Cuberli, soprano (6-8)
Orchestra sinfonica e Coro di Milano della Rai (6-8)
Bruno Bartoletti, conductor (6-8)
Luciana Serra, soprano (9-10)
Orchestra sinfonica di Milano della Rai (9-10)
Alberto Zedda, conductor (9-10)
Victoria de los Angeles, soprano (11-12)
Elisabeth Schwarzkopf, soprano (11-12)
Christa Ludwig, mezzo-soprano (13-15)
Gerald Moore, piano (11-15)

CD43: Rossini: Arias & Orchestral Music (rec.:1960, 1988, 1991, 2004, 2006, 2015)
Wiener Philharmoniker (1)
Sir Malcolm Sargent, conductor (1)
Samuel Ramey, bass (2-3)
Chorus and Orchestra of the Welsh National Opera (2-3)
Gabriele Ferro, conductor (2-3)
Lawrence Brownlee, tenor (4)
Martin Katz, piano (4)
Max Emanuel Cencic, countertenor (5-6)
Orchestre de Chambre de Genève (5-6)
Michael Hofstetter, conductor (5-6)
Marie-Nicole Lemieux, contralto (7-8)
Chœur de l'Opéra national Montpellier Occitanie (7-8)
Orchestre national Montpellier Occitanie (7-8)
Enrique Mazzola, conductor (7-8)
Wolfgang Meyer, clarinet (9)
Württembergische Kammerorchester Heilbronn (9)
Jörg Faerber, conductor (9)

CD44: Rossini: Arias, Songs & Overtures (rec.:1956, 1958, 1971, 1991, 1992, 1997)
Philharmonia Orchestra (1, 3, 9)
Carlo Maria Giulini, conductor (1)
Claudio Scimone, conductor (3, 9)
Royal Philharmonic Orchestra (2)
Sir Thomas Beecham, conductor (2)
Jennifer Larmore, mezzo-soprano (4-7)
London Voices (4-7)
English Chamber Orchestra (4-7)
Giuliano Carella, conductor (4-7)
Pauline Tinsley, soprano (8)
Elisabeth Shelley, mezzo-soprano (8)
Robert Lloys, bass (8)
Chorus and Orchestra of the Royal Opera House, Covent Garden (8)
Lamberto Gardelli, conductor (8)
Thomas Hampson, baritone (10-11)
Geoffrey Parsons, piano (10-11)

Track List:
CD41: Giovanna d'Arco et Ariette rare
01. E notte, e tutto addormentato è il mondo
02. O madre mia
03. Eppur piange
04. Ah, la fiamma che t'esce dal guardo
05. L'ultimo ricordo: Odi di un uom che muore (Péchés de vieillesse, Vol.I, no.4)
06. Se il vuol, la molinara
07. Canzonetta spagnuola: En medio a mis dolores ¡ay!
08. La passeggiata: Or che di fiori adorno
09. Adieux à la vie: Salut! Dernière aurore (Péchés de vieillesse, Vol.II, no.9)
10. La pastorella: Odia la pastorella
11. Addio di Rossini: Da voi parto, amate sponde
12. Semiramide: Eccomi alfine in Babilonia
13. Semiramide: Ah, quel giorno ognor rammento
14. Il Barbiere di Siviglia: Ma forse, ahimè, Lindoro … Ah se è ver che in tal momento
15. Tancredi: O sospirato lido! … Dolci d'amor parole

CD42: Arias & Songs
01. La Gazza Ladra: Deh! Lasciate ch'io pur di gioia esulti … Beviam, tocchiamo, a gara
02. Zelmira: Da te spero, o ciel clemente
03. Tancredi: Qual suono? Che miro!
04. Il Barbiere di Siviglia: La mia pace, la mia calma
05. Maometto II: Non temer, d' un basso affetto
06. Matilde di Shabran: Matilde. Ebben?
07. Matilde di Shabran: Ami alfin? E chi non ama?
08. Matilde di Shabran: Non è vero? … Anzi è verissimo
09. La cambiale di matrimonio: Come tacer, come frenare i moto
10. La cambiale di matrimonio: Vorrei spiegarvi il giubilo
11. Duetto buffo di due gatti
12. La pesca (Les Soirées musicales, no.10)
La regata veneziana (Les Soirées musicales, no.9)
13. Anzoleta avanti la regata
14. Anzoleta co passa la regata
15. Anzoleta dopo la regata

CD43: Arias & Orchestral Music
01. Il viaggio a Reims: Overture
02. Il viaggio a Reims: Ah! Perché la conobbi? … Invan strappar dal core (Lord Sidney)
03. Alle voci della gloria
04. Arietta all'antica dedotta dal "O salutaris hostia"
05. Aureliano in Palmira: Dolci silvestri … Perché mai le luci aprimmo
06. La donna del lago: Ah si pera
07. La gazza ladra: Deh, pensa che domani … E ben, per mia memoria (Pippo, Ninetta)
08. La pietra del paragone: Quel dirmi, oh Dio! (Clarice, Echo)
09. Variations for Clarinet and Small Orchestra in C major

CD44: Arias, Songs & Overtures
01. Il signor Bruschino: Overture
02. La cambiale di matrimonio: Overture
03. Maometto II: Overture
04. Maometto II: Non temer, d'un basso affetto
05. Matilde di Shabran: Sazia tu fossi alfine … Ah! Perché la morte
06. Matilde di Shabran: Piange il mio ciglio
07. La pietra del paragone: Se l'itale contrade … Se per voi le care io torno
08. Mosè in Egitto: Dal tuo stellato soglio
09. Otello: Overture
10. Ave Maria
11. L'ultimo ricordo (Péchés de vieillesse, Vol.I, no.4)


Exact Audio Copy V1.3 from 2. September 2016

EAC extraction logfile from 18. January 2020, 11:56

Marilyn Horne, Martin Katz / Rossini - Giovanna d'Arco et Ariette rare

Used drive : HL-DT-STDVDRAM GH24NS95 Adapter: 1 ID: 0

Read mode : Secure
Utilize accurate stream : Yes
Defeat audio cache : Yes
Make use of C2 pointers : No

Read offset correction : 6
Overread into Lead-In and Lead-Out : No
Fill up missing offset samples with silence : Yes
Delete leading and trailing silent blocks : No
Null samples used in CRC calculations : Yes
Used interface : Native Win32 interface for Win NT & 2000

Used output format : User Defined Encoder
Selected bitrate : 128 kBit/s
Quality : High
Add ID3 tag : No
Command line compressor : C:\Program Files\Exact Audio Copy\FLAC\FLAC.EXE
Additional command line options : -V -8 -T "Date=%year%" -T "Genre=%genre%" %source%


TOC of the extracted CD

Track | Start | Length | Start sector | End sector
––––––––––––––––––––––––––––-
1 | 0:00.00 | 5:38.47 | 0 | 25396
2 | 5:38.47 | 4:44.25 | 25397 | 46721
3 | 10:22.72 | 1:32.22 | 46722 | 53643
4 | 11:55.19 | 6:31.21 | 53644 | 82989
5 | 18:26.40 | 5:21.33 | 82990 | 107097
6 | 23:47.73 | 2:14.48 | 107098 | 117195
7 | 26:02.46 | 3:30.60 | 117196 | 133005
8 | 29:33.31 | 4:48.65 | 133006 | 154670
9 | 34:22.21 | 4:56.22 | 154671 | 176892
10 | 39:18.43 | 3:09.48 | 176893 | 191115
11 | 42:28.16 | 5:43.40 | 191116 | 216880
12 | 48:11.56 | 3:49.31 | 216881 | 234086
13 | 52:01.12 | 6:10.38 | 234087 | 261874
14 | 58:11.50 | 8:05.04 | 261875 | 298253
15 | 66:16.54 | 10:47.06 | 298254 | 346784


Range status and errors

Selected range

Filename C:\ArlegZ\Rossini - Giovanna d'Arco et Ariette rare.wav

Peak level 99.8 %
Extraction speed 8.4 X
Range quality 100.0 %
Test CRC 51409A85
Copy CRC 51409A85
Copy OK

No errors occurred

End of status report

==== Log checksum 9387A4A82899DD1A2888BA83A261B2A0CB4B1D14059EA1DDD83ECCA5F0DEA8BC ====


Exact Audio Copy V1.3 from 2. September 2016

EAC extraction logfile from 18. January 2020, 12:35

Marilyn Horne, Lella Cuberli, Luciana Serra, Victoria de los Angeles, Elisabeth Schwarzkopf, Christa Ludwig, Gerald Moore / Rossini - Arias & Songs

Used drive : HL-DT-STDVDRAM GH24NS95 Adapter: 1 ID: 0

Read mode : Secure
Utilize accurate stream : Yes
Defeat audio cache : Yes
Make use of C2 pointers : No

Read offset correction : 6
Overread into Lead-In and Lead-Out : No
Fill up missing offset samples with silence : Yes
Delete leading and trailing silent blocks : No
Null samples used in CRC calculations : Yes
Used interface : Native Win32 interface for Win NT & 2000

Used output format : User Defined Encoder
Selected bitrate : 128 kBit/s
Quality : High
Add ID3 tag : No
Command line compressor : C:\Program Files\Exact Audio Copy\FLAC\FLAC.EXE
Additional command line options : -V -8 -T "Date=%year%" -T "Genre=%genre%" %source%


TOC of the extracted CD

Track | Start | Length | Start sector | End sector
––––––––––––––––––––––––––––-
1 | 0:00.00 | 4:36.10 | 0 | 20709
2 | 4:36.10 | 5:28.70 | 20710 | 45379
3 | 10:05.05 | 8:30.15 | 45380 | 83644
4 | 18:35.20 | 3:36.03 | 83645 | 99847
5 | 22:11.23 | 9:10.58 | 99848 | 141155
6 | 31:22.06 | 1:38.51 | 141156 | 148556
7 | 33:00.57 | 4:08.46 | 148557 | 167202
8 | 37:09.28 | 6:17.32 | 167203 | 195509
9 | 43:26.60 | 0:34.09 | 195510 | 198068
10 | 44:00.69 | 4:53.27 | 198069 | 220070
11 | 48:54.21 | 3:13.32 | 220071 | 234577
12 | 52:07.53 | 3:51.45 | 234578 | 251947
13 | 55:59.23 | 3:29.20 | 251948 | 267642
14 | 59:28.43 | 2:17.63 | 267643 | 277980
15 | 61:46.31 | 3:53.32 | 277981 | 295487


Range status and errors

Selected range

Filename C:\ArlegZ\Rossini - Arias & Songs.wav

Peak level 97.7 %
Extraction speed 7.3 X
Range quality 99.9 %
Test CRC 25055956
Copy CRC 25055956
Copy OK

No errors occurred

End of status report

==== Log checksum 9DF4789FEDF4A7A7B3A4C22733487804EFEFD06148B2A8052DF417AA39BDCED5 ====


Exact Audio Copy V1.3 from 2. September 2016

EAC extraction logfile from 18. January 2020, 13:05

Samuel Ramey, Lawrence Brownlee, Max Emanuel Cencic, Marie-Nicole Lemieux, Wolfgang Meyer / Rossini - Arias & Orchestral Music

Used drive : HL-DT-STDVDRAM GH24NS95 Adapter: 1 ID: 0

Read mode : Secure
Utilize accurate stream : Yes
Defeat audio cache : Yes
Make use of C2 pointers : No

Read offset correction : 6
Overread into Lead-In and Lead-Out : No
Fill up missing offset samples with silence : Yes
Delete leading and trailing silent blocks : No
Null samples used in CRC calculations : Yes
Used interface : Native Win32 interface for Win NT & 2000

Used output format : User Defined Encoder
Selected bitrate : 128 kBit/s
Quality : High
Add ID3 tag : No
Command line compressor : C:\Program Files\Exact Audio Copy\FLAC\FLAC.EXE
Additional command line options : -V -8 -T "Date=%year%" -T "Genre=%genre%" %source%


TOC of the extracted CD

Track | Start | Length | Start sector | End sector
––––––––––––––––––––––––––––-
1 | 0:00.00 | 6:56.15 | 0 | 31214
2 | 6:56.15 | 15:05.43 | 31215 | 99132
3 | 22:01.58 | 11:07.44 | 99133 | 149201
4 | 33:09.27 | 2:08.67 | 149202 | 158868
5 | 35:18.19 | 6:30.18 | 158869 | 188136
6 | 41:48.37 | 4:26.70 | 188137 | 208156
7 | 46:15.32 | 9:47.24 | 208157 | 252205
8 | 56:02.56 | 6:18.71 | 252206 | 280626
9 | 62:21.52 | 7:45.51 | 280627 | 315552


Range status and errors

Selected range

Filename C:\ArlegZ\Rossini - Arias & Orchestral Music.wav

Peak level 92.0 %
Extraction speed 7.6 X
Range quality 100.0 %
Test CRC 31B877EE
Copy CRC 31B877EE
Copy OK

No errors occurred

End of status report

==== Log checksum C6078B8851940478BAD662E693E99169ADEB8815436B849B333DCAB3FA028DE1 ====


Exact Audio Copy V1.3 from 2. September 2016

EAC extraction logfile from 18. January 2020, 14:17

Carlo Maria Giulini, Claudio Scimone, Thomas Beecham, Jennifer Larmore, Giuliano Carella, Lamberto Gardelli, Thomas Hampson / Rossini - Arias, Songs & Overtures

Used drive : HL-DT-STDVDRAM GH24NS95 Adapter: 1 ID: 0

Read mode : Secure
Utilize accurate stream : Yes
Defeat audio cache : Yes
Make use of C2 pointers : No

Read offset correction : 6
Overread into Lead-In and Lead-Out : No
Fill up missing offset samples with silence : Yes
Delete leading and trailing silent blocks : No
Null samples used in CRC calculations : Yes
Used interface : Native Win32 interface for Win NT & 2000

Used output format : User Defined Encoder
Selected bitrate : 128 kBit/s
Quality : High
Add ID3 tag : No
Command line compressor : C:\Program Files\Exact Audio Copy\FLAC\FLAC.EXE
Additional command line options : -V -8 -T "Date=%year%" -T "Genre=%genre%" %source%


TOC of the extracted CD

Track | Start | Length | Start sector | End sector
––––––––––––––––––––––––––––-
1 | 0:00.00 | 4:52.36 | 0 | 21935
2 | 4:52.36 | 5:26.72 | 21936 | 46457
3 | 10:19.33 | 11:02.35 | 46458 | 96142
4 | 21:21.68 | 8:46.21 | 96143 | 135613
5 | 30:08.14 | 10:55.09 | 135614 | 184747
6 | 41:03.23 | 7:15.34 | 184748 | 217406
7 | 48:18.57 | 7:53.13 | 217407 | 252894
8 | 56:11.70 | 5:10.42 | 252895 | 276186
9 | 61:22.37 | 8:08.73 | 276187 | 312859
10 | 69:31.35 | 5:36.11 | 312860 | 338070
11 | 75:07.46 | 4:47.17 | 338071 | 359612


Range status and errors

Selected range

Filename C:\ArlegZ\Rossini - Arias, Songs & Overtures.wav

Peak level 97.2 %
Extraction speed 3.6 X
Range quality 100.0 %
Test CRC F7242E8C
Copy CRC F7242E8C
Copy OK

No errors occurred

End of status report

==== Log checksum 85F832F71F2409F714C80134B60387523746C693D64CBB27AB4DDCCCB431CC65 ====