Tags
Language
Tags

Gioachino Rossini Edition 50 CDs [Part 7] - L'assedio di Corinto, Le Comte Ory (2018)

Posted By: ArlegZ
Gioachino Rossini Edition 50 CDs [Part 7] - L'assedio di Corinto, Le Comte Ory (2018)

Gioachino Rossini Edition 50 CDs [Part 7]: Thomas Schippers, London Symphony Orchestra, Beverly Sills, Shirley Verrett - L'assedio di Corinto; Vittorio Gui, Glyndebourne Festival Orchestra - Le Comte Ory (2018)
EAC | FLAC | Image (Cue & Log) ~ 977 Mb | Total time: 52:14+42:07+66:41+56:27+56:23 | Scans included
Classical | Label: Warner Classics | # 0190295611156 | Recorded: 1956, 1974

The most comprehensive edition devoted to Gioachino Rossini marking his 150th anniversary.
Born in 1792, Rossini was the most popular opera composer of his time. Although he retired from the Opera scene in 1829, he continued to compose in other genres, including sacred music, piano and chamber works. He did gather his late works under the ironic title Péchés de vieillesse (Sins of Old Age), which veils a true collection of masterworks.
It includes thirteen complete operas, the Rossini Gala - the legendary concert given at the Lincoln Center in 1992, five complete recitals including the recent recording with Joyce DiDonato or the famous Rockwell Blake.

Performer:
Rossini: L'assedio di Corinto (rec.: 1974)
Pamira - Beverly Sills
Neocle - Shirley Verrett
Maometto - Justino Díaz
Cleomene - Harry Theyard
Jero - Gwynne Howell
Omar - Robert Lloyd
Ismene - Delia Wallis
Adrasto - Gaetano Scano
Ambrosian Opera Chorus
London Symphony Orchestra
Conductor - Thomas Schippers

Rossini: Le Comte Ory (rec.: 1956)
Le Comte Ory - Juan Oncina
La Comtesse Adèle - Sari Barabas
Isolier - Cora Canne-Meijer
Le Gouverneur - Ian Wallace
Raimbaud - Michel Roux
Ragonde - Monica Sinclair
Alice - Jeannette Sinclair
Un jeune noble - Dermot Troy
Glyndebourne Festival Orchestra and Chorus
Conductor - Vittorio Gui

Track List:
CD25: L'assedio di Corinto
01. Sinfonia
02. Atto I. Scena 1. Introduzione: Signor, un sol tuo cenno (Coro)
03. Scena e Terzetto: Del vincitor superbo di Bisanzio (Cleomene)
04. In così reo periglio (Coro, Neocle, Jero)
05. La spada omicida (Jero, Cleomene, Neocle, coro)
06. Scena e Terzetto: Tua figlia m'è promessa (Neocle, Cleomene, Pamira)
07. Destin terribile! (Neocle, Cleomene, Pamira)
08. Di morte il suon mandò (Coro, Pamira, Cleomene, Neocle)
09. La data fé rammento (Pamira, Cleomene, Neocle, coro)
10. Scena 2. Marcia e Coro: Dal ferro del forte (Coro)
11. Cavatina: Duce di tanti eroi (Maometto, coro)
12. Scena e Quintetto: Trionfammo, Signor (Omar, Maometto)
13. Capo all'ostra ribelle (Maometto, Cleomene)
14. O ciel! Fermate (Pamira, Maometto)
15. Ritrovo l'amante nel crudo nemico (Pamira, Maometto, Cleomene, Ismene, coro)
16. Pamira mi sei resa (Maometto, Pamira, Cleomene, Ismene, Omar, coro)
17. L'alma che geme (Pamira, Cleomene, Maometto, Ismene, Omar, coro)
CD26:
01. Atto II. Recitativo ed Aria: Cielo! che diverrò? (Pamira)
02. Si, ferite il chieggo, il merto (Pamira)
03. Dal soggiorno degli estinti (Pamira)
04. Ah! che spigar non posso (Pamira)
05. Scena e Duetto: Sgombra il timor (Maometto, Pamira)
06. Che vedo? Ohimè, tu piani? (Maometto, Pamira)
07. Potrai lasciar che l'alma (Pamira, Maometto)
08. Recitativo e Coro: Vinci, Pamira, il timor (Maometto, Ismene, coro)
09. Inno: Divin profeta, dator di bene (Coro)
10. Scena e Finale II: Pamira … Questo altar (Maometto, Pamira, Neocle, Omar)
11. È suo germano! (Maometto, Pamira, Neocle)
12. Sian tolti a lui quei ferri (Maometto, Neocle, Pamira)
13. Oh, sol di chi t'adora (Maometto, Neocle, Pamira)
14. Corinto in suon di sdegno (Omar, Maometto, Neocle, Pamira, Cleomene, coro, Ismene)
15. Ebbene, il nuovo sole (Maometto, Pamira, Ismene, Neocle, Omar, Cleomene, coro)
CD27:
01. Atto III. Aria e Coro: Avanziam, questo è il luogo (Neocle)
02. Ciel! chi vegg'io? (Adastro, Neocle)
03. Non temer, d'un basso affetto (Neocle)
04. Signor, che tutto puoi (Pamira, coro, Cleomene)
05. Scena e Terzetto: Oh come al cor soavi (Cleomene)
06. D'ogni intorno vegliate (Maometto, Cleomene)
07. Pria svenar con ferme ciglia (Maometto, Cleomene)
08. Speri invan (Cleomene, Maometto, Neocle)
09. All'empio in braccio (Neocle, Maometto, Cleomene)
10. Tu che tanto orgoglioso ostenti (Maometto, Neocle, Cleomene)
11. Di generoso, nobile ardore (Neocle, Maometto)
12. Scena e Terzetto: O mio Cleomene (Neocle, Cleomene)
13. Ciel! Ella! (Cleomene, Pamira, Neocle)
14. Celeste provvidenza (Neocle, Pamira, Cleomene)
15. Scena ed Aria: Tutto percorsi il marzial recinto (Jero, Cleomene)
16. Chiuso serbate il cor (Jero, Pamira, Neocle, Cleomene, coro)
17. Nube di sangue intrisa (Jero, Pamira, Neocle, Cleomene, coro)
18. Questo nome, che suono vittoria (Jero, Pamira, Neocle, Cleomene, coro)
19. Scena, Preghiera ed Aria: L'ora fatal s'appressa (Pamira)
20. Giusto ciel! (Pamira, coro)
21. Vittora! Vittoria! (Coro, Pamira)
22. Parmi verderlo, ahi misero (Pamira, coro)
23. Finale III: Ma qual mai suona (Pamira, coro, Maometto)

CD28: Le Comte Ory
01. Ouverture
02. Act I. Jouvencelles, venez vite (Raimbaud, Alice, Chorus)
03. Quand Madame la Comtesse (Ragonde, Chorus, Alice, Raimbaud)
04. Que les destins prospères (Comte)
05. Je viens à vous (Ragonde, Conte, Chorus)
06. Moi, je rèclame pour que sa femme (Chorus, Comte, Ragonde)
07. Je ne puis longtemps voyager de la sorte (Gouverneur, Isolier)
08. Vous, notre appui et notre ami (Chorus, Gouverneur)
09. Cette aventure fort singulière (Gouverneur, Chorus, Isolier)
10. Je vais revoir la beautè (Isolier, Conte)
11. Une dame de haut parade (Isolier, Conte)
12. Isolier dans ces lieux! (Comtesse, Isolier, Conte)
13. En proie à la tristesse (Comtesse, Chorus)
14. Vous avez entendu sa touchante prière! (Isolier, Conte, Comtesse, Chorus)
15. Ô bon ermite (Isolier, Conte, Comtesse, Chorus)
16. C'est bien - je suis content (Isolier, Conte, Comtesse, Chorus, Gouverneur, Raimbaud)
17. Ciel! Ô terreur (Comtesse, Alice, Ragonde, Isolier, Comte, Raimbaud, Gouverneur, Chorus)
18. Cet écrit, noble châtelaine (Ragonde, Comte, Comtesse, Alice, Isolier, Raimboud, Gouverneur, Chorus)
19. Vebez, amis, retirons-nous (Comte, Isolier, Comtesse, Ragonde, Raimbaud, Gouverneur, Alice, Chorus)
CD29:
01. Act II. Dans ce séjour calme et tranquille (Comtesse, Ragonde, Chorus)
02. Écoutez! Le ciel grande (Comtesse, Ragonde, Chorus)
03. Noble châtelaine (Comte, Noble, Raimbaud, Gouverneur)
04. Voyez qui ce peut étre (Comtesse, Ragonde, Chorus, Comte, Noble, Raimbaud, Gouverneur)
05. Quand tomberont sur lui les vengeances divines? (Ragonde, Comtesse)
06. Ah! quel reapect, madame (Comte, Comtesse)
07. On le dit téméraire (Comte, Comtesse)
08. Voici vos compagnos fidèles (Comte, Comtesse)
09. Ah! la bonne folie! (Comte, Raimbaud, Gouverneur, Chorus)
10. Eh! mais quelle triste observancr! (Comte, Raimbaud, Gouverneur, Chorus)
11. Dans ce lieu solitaire (Raimbaud, Chorus)
12. Du fruit de sa victoire (Comte)
13. Buvons, buvons (Comte, Noble, Raimbaud, Gouverneur, Chorus)
14. On vient… c'est la tourière! (Comte, Noble, Raimbaud, Gouverneur, Chorus)
15. Elle revient - silence! (Comte, Comtesse, Ragonde, Isolier)
16. À la faveur de cette nuit obscure (Comte, Comtesse, Isolier)
17. Maintenant, je vous en supplie (Comtesse, Comte)
18. J'entends d'ici le bruit des armes (Comtesse, Comte, Isolier)
19. Ô ciel! quel est ce bruit? (Comte, Isolier)
20. Écoutez ces chants de victoire (Comtesse, Comte, Chorus, Ragonde, Isolier)


Exact Audio Copy V1.3 from 2. September 2016

EAC extraction logfile from 10. January 2020, 14:25

Thomas Schippers, London Symphony Orchestra / Rossini - L'assedio di Corinto CD1

Used drive : HL-DT-STDVDRAM GH24NS95 Adapter: 1 ID: 0

Read mode : Secure
Utilize accurate stream : Yes
Defeat audio cache : Yes
Make use of C2 pointers : No

Read offset correction : 6
Overread into Lead-In and Lead-Out : No
Fill up missing offset samples with silence : Yes
Delete leading and trailing silent blocks : No
Null samples used in CRC calculations : Yes
Used interface : Native Win32 interface for Win NT & 2000

Used output format : User Defined Encoder
Selected bitrate : 128 kBit/s
Quality : High
Add ID3 tag : No
Command line compressor : C:\Program Files\Exact Audio Copy\FLAC\FLAC.EXE
Additional command line options : -V -8 -T "Date=%year%" -T "Genre=%genre%" %source%


TOC of the extracted CD

Track | Start | Length | Start sector | End sector
––––––––––––––––––––––––––––-
1 | 0:00.32 | 9:45.05 | 32 | 43911
2 | 9:45.37 | 3:12.45 | 43912 | 58356
3 | 12:58.07 | 2:09.40 | 58357 | 68071
4 | 15:07.47 | 1:32.20 | 68072 | 74991
5 | 16:39.67 | 2:29.30 | 74992 | 86196
6 | 19:09.22 | 2:55.38 | 86197 | 99359
7 | 22:04.60 | 6:37.07 | 99360 | 129141
8 | 28:41.67 | 1:59.18 | 129142 | 138084
9 | 30:41.10 | 2:56.37 | 138085 | 151321
10 | 33:37.47 | 2:36.40 | 151322 | 163061
11 | 36:14.12 | 3:32.25 | 163062 | 178986
12 | 39:46.37 | 2:24.60 | 178987 | 189846
13 | 42:11.22 | 1:18.48 | 189847 | 195744
14 | 43:29.70 | 0:59.07 | 195745 | 200176
15 | 44:29.02 | 3:46.40 | 200177 | 217166
16 | 48:15.42 | 1:43.35 | 217167 | 224926
17 | 49:59.02 | 2:15.65 | 224927 | 235116


Range status and errors

Selected range

Filename C:\ArlegZ\Rossini - L'assedio di Corinto CD1.wav

Peak level 95.7 %
Extraction speed 1.7 X
Range quality 100.0 %
Test CRC 641C6CFC
Copy CRC 641C6CFC
Copy OK

No errors occurred

End of status report

==== Log checksum 94DE19349C98C87477E539BF72C7FE65F4B1C9055CC4522FC1BECBBF6DD7DB12 ====


Exact Audio Copy V1.3 from 2. September 2016

EAC extraction logfile from 10. January 2020, 15:34

Thomas Schippers, London Symphony Orchestra / Rossini - L'assedio di Corinto CD2

Used drive : HL-DT-STDVDRAM GH24NS95 Adapter: 1 ID: 0

Read mode : Secure
Utilize accurate stream : Yes
Defeat audio cache : Yes
Make use of C2 pointers : No

Read offset correction : 6
Overread into Lead-In and Lead-Out : No
Fill up missing offset samples with silence : Yes
Delete leading and trailing silent blocks : No
Null samples used in CRC calculations : Yes
Used interface : Native Win32 interface for Win NT & 2000

Used output format : User Defined Encoder
Selected bitrate : 128 kBit/s
Quality : High
Add ID3 tag : No
Command line compressor : C:\Program Files\Exact Audio Copy\FLAC\FLAC.EXE
Additional command line options : -V -8 -T "Date=%year%" -T "Genre=%genre%" %source%


TOC of the extracted CD

Track | Start | Length | Start sector | End sector
––––––––––––––––––––––––––––-
1 | 0:00.33 | 2:04.35 | 33 | 9367
2 | 2:04.68 | 2:49.15 | 9368 | 22057
3 | 4:54.08 | 5:03.37 | 22058 | 44819
4 | 9:57.45 | 2:41.10 | 44820 | 56904
5 | 12:38.55 | 1:37.53 | 56905 | 64232
6 | 14:16.33 | 2:33.25 | 64233 | 75732
7 | 16:49.58 | 3:14.37 | 75733 | 90319
8 | 20:04.20 | 1:41.35 | 90320 | 97929
9 | 21:45.55 | 5:06.70 | 97930 | 120949
10 | 26:52.50 | 2:37.18 | 120950 | 132742
11 | 29:29.68 | 2:58.50 | 132743 | 146142
12 | 32:28.43 | 1:16.12 | 146143 | 151854
13 | 33:44.55 | 3:04.08 | 151855 | 165662
14 | 36:48.63 | 3:04.42 | 165663 | 179504
15 | 39:53.30 | 2:14.60 | 179505 | 189614


Range status and errors

Selected range

Filename C:\ArlegZ\Rossini - L'assedio di Corinto CD2.wav

Peak level 92.8 %
Extraction speed 1.6 X
Range quality 99.9 %
Test CRC 1F6555BD
Copy CRC 1F6555BD
Copy OK

No errors occurred

End of status report

==== Log checksum EE61F0FA7BCCFB1C8D02D5204E2DE041AD8C8B81EC0389636499CAB3782803EA ====


Exact Audio Copy V1.3 from 2. September 2016

EAC extraction logfile from 10. January 2020, 17:25

Thomas Schippers, London Symphony Orchestra / Rossini - L'assedio di Corinto CD3

Used drive : HL-DT-STDVDRAM GH24NS95 Adapter: 1 ID: 0

Read mode : Secure
Utilize accurate stream : Yes
Defeat audio cache : Yes
Make use of C2 pointers : No

Read offset correction : 6
Overread into Lead-In and Lead-Out : No
Fill up missing offset samples with silence : Yes
Delete leading and trailing silent blocks : No
Null samples used in CRC calculations : Yes
Used interface : Native Win32 interface for Win NT & 2000

Used output format : User Defined Encoder
Selected bitrate : 128 kBit/s
Quality : High
Add ID3 tag : No
Command line compressor : C:\Program Files\Exact Audio Copy\FLAC\FLAC.EXE
Additional command line options : -V -8 -T "Date=%year%" -T "Genre=%genre%" %source%


TOC of the extracted CD

Track | Start | Length | Start sector | End sector
––––––––––––––––––––––––––––-
1 | 0:00.33 | 4:58.15 | 33 | 22397
2 | 4:58.48 | 1:33.62 | 22398 | 29434
3 | 6:32.35 | 9:34.65 | 29435 | 72549
4 | 16:07.25 | 2:21.53 | 72550 | 83177
5 | 18:29.03 | 0:26.22 | 83178 | 85149
6 | 18:55.25 | 1:19.20 | 85150 | 91094
7 | 20:14.45 | 3:06.10 | 91095 | 105054
8 | 23:20.55 | 1:16.53 | 105055 | 110807
9 | 24:37.33 | 3:17.72 | 110808 | 125654
10 | 27:55.30 | 3:04.48 | 125655 | 139502
11 | 31:00.03 | 1:21.72 | 139503 | 145649
12 | 32:22.00 | 1:15.53 | 145650 | 151327
13 | 33:37.53 | 2:31.27 | 151328 | 162679
14 | 36:09.05 | 5:28.38 | 162680 | 187317
15 | 41:37.43 | 1:18.72 | 187318 | 193239
16 | 42:56.40 | 2:06.35 | 193240 | 202724
17 | 45:03.00 | 2:59.05 | 202725 | 216154
18 | 48:02.05 | 3:12.28 | 216155 | 230582
19 | 51:14.33 | 2:35.32 | 230583 | 242239
20 | 53:49.65 | 4:21.50 | 242240 | 261864
21 | 58:11.40 | 1:09.53 | 261865 | 267092
22 | 59:21.18 | 5:10.15 | 267093 | 290357
23 | 64:31.33 | 2:10.60 | 290358 | 300167


Range status and errors

Selected range

Filename C:\ArlegZ\Rossini - L'assedio di Corinto CD3.wav

Peak level 100.0 %
Extraction speed 1.8 X
Range quality 99.9 %
Test CRC 474CDA6F
Copy CRC 474CDA6F
Copy OK

No errors occurred

End of status report

==== Log checksum 36DE7067DE013C3B93FE6FA3EB0F467F93A8963D11B06B9E32C42A1FB3F368C8 ====


Exact Audio Copy V1.3 from 2. September 2016

EAC extraction logfile from 10. January 2020, 18:58

Vittorio Gui, Glyndebourne Festival Orchestra & Chorus / Rossini - Le Comte Ory CD1

Used drive : HL-DT-STDVDRAM GH24NS95 Adapter: 1 ID: 0

Read mode : Secure
Utilize accurate stream : Yes
Defeat audio cache : Yes
Make use of C2 pointers : No

Read offset correction : 6
Overread into Lead-In and Lead-Out : No
Fill up missing offset samples with silence : Yes
Delete leading and trailing silent blocks : No
Null samples used in CRC calculations : Yes
Used interface : Native Win32 interface for Win NT & 2000

Used output format : User Defined Encoder
Selected bitrate : 128 kBit/s
Quality : High
Add ID3 tag : No
Command line compressor : C:\Program Files\Exact Audio Copy\FLAC\FLAC.EXE
Additional command line options : -V -8 -T "Date=%year%" -T "Genre=%genre%" %source%


TOC of the extracted CD

Track | Start | Length | Start sector | End sector
––––––––––––––––––––––––––––-
1 | 0:00.32 | 3:31.73 | 32 | 15929
2 | 3:32.30 | 3:57.57 | 15930 | 33761
3 | 7:30.12 | 2:46.70 | 33762 | 46281
4 | 10:17.07 | 4:32.20 | 46282 | 66701
5 | 14:49.27 | 0:50.55 | 66702 | 70506
6 | 15:40.07 | 3:09.13 | 70507 | 84694
7 | 18:49.20 | 2:18.27 | 84695 | 95071
8 | 21:07.47 | 2:29.05 | 95072 | 106251
9 | 23:36.52 | 2:39.70 | 106252 | 118246
10 | 26:16.47 | 1:47.18 | 118247 | 126289
11 | 28:03.65 | 4:41.27 | 126290 | 147391
12 | 32:45.17 | 2:08.28 | 147392 | 157019
13 | 34:53.45 | 5:33.50 | 157020 | 182044
14 | 40:27.20 | 1:55.45 | 182045 | 190714
15 | 42:22.65 | 3:27.32 | 190715 | 206271
16 | 45:50.22 | 1:49.10 | 206272 | 214456
17 | 47:39.32 | 2:54.33 | 214457 | 227539
18 | 50:33.65 | 2:14.12 | 227540 | 237601
19 | 52:48.02 | 3:39.30 | 237602 | 254056


Range status and errors

Selected range

Filename C:\ArlegZ\Rossini - Le Comte Ory CD1.wav

Peak level 97.5 %
Extraction speed 1.7 X
Range quality 100.0 %
Test CRC AC00BF0A
Copy CRC AC00BF0A
Copy OK

No errors occurred

End of status report

==== Log checksum A1C369F88E94B11BC818E7F8935784A284045CE254743B7F3BCC32A8F043CA26 ====


Exact Audio Copy V1.3 from 2. September 2016

EAC extraction logfile from 10. January 2020, 20:14

Vittorio Gui, Glyndebourne Festival Orchestra & Chorus / Rossini - Le Comte Ory CD2

Used drive : HL-DT-STDVDRAM GH24NS95 Adapter: 1 ID: 0

Read mode : Secure
Utilize accurate stream : Yes
Defeat audio cache : Yes
Make use of C2 pointers : No

Read offset correction : 6
Overread into Lead-In and Lead-Out : No
Fill up missing offset samples with silence : Yes
Delete leading and trailing silent blocks : No
Null samples used in CRC calculations : Yes
Used interface : Native Win32 interface for Win NT & 2000

Used output format : User Defined Encoder
Selected bitrate : 128 kBit/s
Quality : High
Add ID3 tag : No
Command line compressor : C:\Program Files\Exact Audio Copy\FLAC\FLAC.EXE
Additional command line options : -V -8 -T "Date=%year%" -T "Genre=%genre%" %source%


TOC of the extracted CD

Track | Start | Length | Start sector | End sector
––––––––––––––––––––––––––––-
1 | 0:00.32 | 4:52.38 | 32 | 21969
2 | 4:52.70 | 2:19.32 | 21970 | 32426
3 | 7:12.27 | 1:11.68 | 32427 | 37819
4 | 8:24.20 | 2:53.70 | 37820 | 50864
5 | 11:18.15 | 2:15.70 | 50865 | 61059
6 | 13:34.10 | 6:43.62 | 61060 | 91346
7 | 20:17.72 | 2:50.68 | 91347 | 104164
8 | 23:08.65 | 0:38.12 | 104165 | 107026
9 | 23:47.02 | 1:20.30 | 107027 | 113056
10 | 25:07.32 | 0:48.18 | 113057 | 116674
11 | 25:55.50 | 5:26.10 | 116675 | 141134
12 | 31:21.60 | 0:16.50 | 141135 | 142384
13 | 31:38.35 | 2:14.60 | 142385 | 152494
14 | 33:53.20 | 2:15.60 | 152495 | 162679
15 | 36:09.05 | 3:29.20 | 162680 | 178374
16 | 39:38.25 | 9:45.02 | 178375 | 222251
17 | 49:23.27 | 1:16.40 | 222252 | 227991
18 | 50:39.67 | 2:48.25 | 227992 | 240616
19 | 53:28.17 | 0:54.63 | 240617 | 244729
20 | 54:23.05 | 2:00.25 | 244730 | 253754


Range status and errors

Selected range

Filename C:\ArlegZ\Rossini - Le Comte Ory CD2.wav

Peak level 99.1 %
Extraction speed 1.7 X
Range quality 99.9 %
Test CRC 0501B29E
Copy CRC 0501B29E
Copy OK

No errors occurred

End of status report

==== Log checksum 61CC9E3FC96EBD2627B32B24463914CF9B5CB6308DCB1151278D170BA15CA4F6 ====