Giorgio - Knights In White Satin (1976) [2011, Remastered]

Posted By: popsakov
Giorgio - Knights In White Satin (1976) [2011, Remastered]

Giorgio - Knights In White Satin (1976)
EAC Rip | FLAC (Img) + Cue + Log ~ 349 Mb | MP3 CBR320 ~ 117 Mb
Scans (PNG, 600 dpi) ~ 224 Mb | RAR 5% Recovery
Disco | Repertoire Records #REP 5215

Digitally remastered and expanded edition. Giorgio Moroder is a brilliant songwriter and has produced recordings by world class artists such as David Bowie, Barbra Streisand and the Three Degrees. He is the man credited as creating Euro Disco and pioneering computerized dance music, always at the forefront of pop and an acknowledged influence on many artists for decades. Backed by the Munich Machine, a tight studio ensemble with strings and vocalists, here is his 1976 solo album, now expanded with four bonus single tracks - including the title track (an innovative treatment of the Moody Blues classic 'Nights In White Satin') and 'Oh L'Amour' and 'Let The Music Play'.
~ Amazon

***************

Giorgio - Knights In White Satin (1976) [2011, Remastered]

Track List:

01. Knights in White Satin [04:46]
02. In The Middle Of The Knight [05:00]
03. Knights in White Satin [05:02]
04. Oh, L'amour [05:48]
05. Sooner Or Later [05:44]
06. I Wanna Funk With You Tonite [05:31]

Bonus Tracks

07. Let The Music Play (single version A-side) [03:42]
08. Oh, L'amour (single version B-side) [05:23]
09. I Wanna Funk With You Tonite (single version A-side) [03:56]
10. Knights in White Satin (single version B-side) [03:53]

Exact Audio Copy V0.99 prebeta 5 from 4. May 2009

Отчёт EAC об извлечении, выполненном 3. сентября 2011, 0:03

Giorgio Moroder / Knights In White Satin

Дисковод: Optiarc DVD RW AD-7201S Adapter: 2 ID: 1

Режим чтения : Достоверность
Использование точного потока : Да
Отключение кэша аудио : Да
Использование указателей C2 : Нет

Коррекция смещения при чтении : 48
Способность читать области Lead-in и Lead-out : Нет
Заполнение пропущенных сэмплов тишиной : Да
Удаление блоков с тишиной в начале и конце : Нет
При вычислениях CRC использовались нулевые сэмплы : Да
Интерфейс : Встроенный Win32-интерфейс для Win NT/2000

Выходной формат : Внутренние WAV-операции
Формат сэмплов : 44.100 Гц; 16 бит; стерео


TOC извлечённого CD

Трек | Старт | Длительность | Начальный сектор | Конечный сектор
––––––––––––––––––––––––––––––––––-
1 | 0:00.00 | 4:45.08 | 0 | 21382
2 | 4:45.08 | 4:59.28 | 21383 | 43835
3 | 9:44.36 | 5:01.59 | 43836 | 66469
4 | 14:46.20 | 5:47.47 | 66470 | 92541
5 | 20:33.67 | 5:43.67 | 92542 | 118333
6 | 26:17.59 | 5:30.24 | 118334 | 143107
7 | 31:48.08 | 3:41.29 | 143108 | 159711
8 | 35:29.37 | 5:22.10 | 159712 | 183871
9 | 40:51.47 | 3:56.00 | 183872 | 201571
10 | 44:47.47 | 3:52.70 | 201572 | 219041


Характеристики диапазона извлечения и сообщения об ошибках

Выбранный диапазон

Имя файла G:\Раздачи Rodexx\Giorgio - Knights In White Satin\Giorgio Moroder - Knights In White Satin.wav

Пиковый уровень 100.0 %
Качество диапазона 100.0 %
CRC теста 7E99EFDF
CRC копии 7E99EFDF
Копирование… OK

Ошибок не произошло


AccurateRip: сводка

Трек 1 нет в базе данных
Трек 2 нет в базе данных
Трек 3 нет в базе данных
Трек 4 нет в базе данных
Трек 5 нет в базе данных
Трек 6 нет в базе данных
Трек 7 нет в базе данных
Трек 8 нет в базе данных
Трек 9 нет в базе данных
Трек 10 нет в базе данных

Ни одного трека нет в базе AccurateRip

Конец отчёта

foobar2000 1.2.6 / Dynamic Range Meter 1.1.1
log date: 2015-07-15 08:51:52

––––––––––––––––––––––––––––––––––––––––
Analyzed: Giorgio Moroder / Knights In White Satin
––––––––––––––––––––––––––––––––––––––––

DR Peak RMS Duration Track
––––––––––––––––––––––––––––––––––––––––
DR7 -0.10 dB -8.82 dB 4:45 01-Knights In White Satin
DR7 -0.10 dB -8.71 dB 4:59 02-In The Middle Of The Night
DR7 -0.10 dB -8.59 dB 5:02 03-Knights In White Satin
DR8 0.00 dB -9.67 dB 5:48 04-Oh L'Amour
DR7 -0.10 dB -8.75 dB 5:44 05-Sooner Or Later
DR7 -0.10 dB -7.76 dB 5:30 06-I Wanna Funk With You Tonite
DR8 0.00 dB -9.04 dB 3:41 07-Let The Music Play (Single-Version)
DR9 -0.10 dB -11.17 dB 5:22 08-Oh L'Amour (Single-Version)
DR8 -0.10 dB -8.89 dB 3:56 09-I Wanna Funk With You Tonite (Single-Version)
DR8 0.00 dB -9.71 dB 3:53 10-Knights In White Satin (Single-Version)
––––––––––––––––––––––––––––––––––––––––

Number of tracks: 10
Official DR value: DR8

Samplerate: 44100 Hz
Channels: 2
Bits per sample: 16
Bitrate: 956 kbps
Codec: FLAC
================================================================================

[CUETools log; Date: 15.07.2015 8:51:42; Version: 2.1.5]
[CTDB TOCID: r1dpIRRuheJTFBmTmkdd3XlK_LQ-] found.
Track | CTDB Status
1 | (5/5) Accurately ripped
2 | (5/5) Accurately ripped
3 | (5/5) Accurately ripped
4 | (5/5) Accurately ripped
5 | (5/5) Accurately ripped
6 | (5/5) Accurately ripped
7 | (5/5) Accurately ripped
8 | (5/5) Accurately ripped
9 | (5/5) Accurately ripped
10 | (5/5) Accurately ripped
[AccurateRip ID: 0013124f-00982a7f-980b680a] found.
Track [ CRC | V2 ] Status
01 [93c432b3|1e6ca6f5] (03+00/10) Accurately ripped
02 [713741c4|3d1b8064] (02+00/09) Accurately ripped
03 [19dc1d9d|212fb133] (02+00/09) Accurately ripped
04 [e1116f71|6c35af6a] (02+00/09) Accurately ripped
05 [b7c4d709|7a4007e4] (02+00/09) Accurately ripped
06 [741e0dbf|77336aeb] (02+00/09) Accurately ripped
07 [bd0437d2|78fd9a68] (02+00/08) Accurately ripped
08 [3244a4eb|1adb8bb9] (02+00/08) Accurately ripped
09 [bb0bf808|ee9dba54] (02+00/09) Accurately ripped
10 [51ef93c9|38bf00e6] (02+00/09) Accurately ripped
Offsetted by 96:
01 [f01999ba] (00/10) No match (V2 was not tested)
02 [3fe14298] (00/09) No match (V2 was not tested)
03 [adf03263] (00/09) No match (V2 was not tested)
04 [cf026fe5] (00/09) No match (V2 was not tested)
05 [92668eed] (00/09) No match (V2 was not tested)
06 [73a1504b] (00/09) No match (V2 was not tested)
07 [3c504219] (00/08) No match (V2 was not tested)
08 [9179bc7e] (00/08) No match (V2 was not tested)
09 [9f0be30c] (00/09) No match (V2 was not tested)
10 [45da7e77] (00/09) No match (V2 was not tested)
Offsetted by 667:
01 [ae207066] (00/10) No match (V2 was not tested)
02 [21923b81] (00/09) No match (V2 was not tested)
03 [4ba8ad8b] (00/09) No match (V2 was not tested)
04 [ee2e6774] (00/09) No match (V2 was not tested)
05 [9f606784] (00/09) No match (V2 was not tested)
06 [525f6b8c] (00/09) No match (V2 was not tested)
07 [d42e2003] (00/08) No match (V2 was not tested)
08 [f2054a74] (00/08) No match (V2 was not tested)
09 [7e25264b] (00/09) No match (V2 was not tested)
10 [89c29a90] (00/09) No match (V2 was not tested)

Track Peak [ CRC32 ] [W/O NULL] [ LOG ]
– 100,0 [7E99EFDF] [71C43EF5] CRC32
01 98,8 [8951C357] [78EA2EC8]
02 98,8 [1274F257] [20D24600]
03 98,8 [4541172C] [905221F3]
04 100,0 [1F6AB5DA] [A4F6D1B6]
05 98,8 [08F0EF14] [C3BA3FBF]
06 98,8 [AC95BF43] [693521EB]
07 100,0 [AF1845A3] [6EFF7E92]
08 98,8 [64D066FF] [804CE243]
09 98,8 [A1BD5DBE] [4A5DDF4E]
10 100,0 [EF5E9DE6] [BF154491]

Giorgio - Knights In White Satin (1976) [2011, Remastered]

All thanks go to Rodexx

Giorgio Moroder in my blog!

Download:
Nitroflare: FLAC-part 1 | FLAC-part 2 | Scans | mp3