Subcategories

Giovanna Pessi / Susanna Wallumrod - If Grief Could Wait (2011) {ECM 2226} [Re-Up]

Posted By: tiburon
Giovanna Pessi / Susanna Wallumrod - If Grief Could Wait (2011) {ECM 2226} [Re-Up]

Giovanna Pessi / Susanna Wallumrod - If Grief Could Wait (2011) {ECM 2226}
EAC 1.0b1 | FLAC tracks level 8 | Cue+Log+M3U | Full Scans 600dpi | 408MB + 5% Recovery
Genre: Classical, Jazz
Giovanna Pessi / Susanna Wallumrod - If Grief Could Wait (2011) {ECM 2226} [Re-Up]

Harpist Giovanna Pessi has previously been heard on ECM recordings with Christian Wallumrod and with Rolf Lislevand. On her first leader date for ECM she introduces a unique project of old and new songs in which 17th century pieces by Henry Purcell are interspersed with 20th century ballads of Leonard Cohen and Nick Drake and 21st century songs of Susanna Wallumrod, all rendered timeless by the ‘early music’ instrumentation and Susanna’s pure, understated vocal style.
Track List
01. H. Purcell: The Plaint 6:17
02. L. Cohen: Who by Fire 3:56
03. H. Purcell: If Grief Has Any Pow’r to Kill 3:05
04. S. K. Wallumrod: The Forester 9:51
05. H. Purcell: A New Ground 3:02
06. L. Cohen: You Know Who I Am 4:05
07. S. K. Wallumrod: Hangout 5:35
08. H. Purcell: O Solitude 6:14
09. N. Drake: Which Will 4:00
10. H. Purcell: A New Scotch Tune 1:21
11. H. Purcell: Music for a While 4:06
12. H. Purcell: A New Scotch Tune, var. 1:41
13. H. Purcell: An Evening Hymn 4:22

musicians
Giovanna Pessi - baroque harp
Susanna K. Wallumrod - voice
Jane Achtman - viola da gamba
Marco Ambrosini - nyckelharpa

Produced by Manfred Eicher


Exact Audio Copy V1.0 beta 1 from 15. November 2010

EAC extraction logfile from 24. December 2011, 11:28

Giovanna Pessi, Susanna Wallumrod / If Grief Could Wait

Used drive : HL-DT-STDVD-RAM GH22LP20 Adapter: 5 ID: 0

Read mode : Secure
Utilize accurate stream : Yes
Defeat audio cache : Yes
Make use of C2 pointers : No

Read offset correction : 102
Overread into Lead-In and Lead-Out : No
Fill up missing offset samples with silence : Yes
Delete leading and trailing silent blocks : No
Null samples used in CRC calculations : Yes
Used interface : Native Win32 interface for Win NT & 2000
Gap handling : Appended to previous track

Used output format : User Defined Encoder
Selected bitrate : 768 kBit/s
Quality : High
Add ID3 tag : No
Command line compressor : C:\Archivos de programa\Exact Audio Copy\FLAC\FLAC.EXE
Additional command line options : -8 -V -T "ARTIST=%a" -T "TITLE=%t" -T "ALBUM=%g" -T "DATE=%y" -T "TRACKNUMBER=%n" -T "TOTALTRACKS=%x" -T "GENRE=%m" -T "ALBUMARTIST=%v" -T "ALBUM ARTIST=%v" -T "COMMENT=EAC Secure Mode, Test & Copy, AccurateRip, FLAC -8" %s


TOC of the extracted CD

Track | Start | Length | Start sector | End sector
––––––––––––––––––––––––––––-
1 | 0:00.00 | 6:17.02 | 0 | 28276
2 | 6:17.02 | 3:56.43 | 28277 | 46019
3 | 10:13.45 | 3:05.10 | 46020 | 59904
4 | 13:18.55 | 9:51.70 | 59905 | 104299
5 | 23:10.50 | 3:02.24 | 104300 | 117973
6 | 26:12.74 | 4:05.01 | 117974 | 136349
7 | 30:18.00 | 5:35.08 | 136350 | 161482
8 | 35:53.08 | 6:14.02 | 161483 | 189534
9 | 42:07.10 | 4:00.42 | 189535 | 207576
10 | 46:07.52 | 1:21.22 | 207577 | 213673
11 | 47:28.74 | 4:06.26 | 213674 | 232149
12 | 51:35.25 | 1:41.48 | 232150 | 239772
13 | 53:16.73 | 4:22.57 | 239773 | 259479


Track 1

Filename D:\flac rips\01 - The Plaint.wav

Pre-gap length 0:00:02.00

Peak level 70.3 %
Extraction speed 1.7 X
Track quality 100.0 %
Test CRC 2F843DCE
Copy CRC 2F843DCE
Accurately ripped (confidence 1) [B7379E6C]
Copy OK

Track 2

Filename D:\flac rips\02 - Who By Fire.wav

Peak level 77.5 %
Extraction speed 1.8 X
Track quality 100.0 %
Test CRC E6D74271
Copy CRC E6D74271
Accurately ripped (confidence 1) [6365C382]
Copy OK

Track 3

Filename D:\flac rips\03 - If Grief has any Pow'r to Kill.wav

Peak level 66.8 %
Extraction speed 1.9 X
Track quality 100.0 %
Test CRC A30D5EE5
Copy CRC A30D5EE5
Accurately ripped (confidence 1) [70783C30]
Copy OK

Track 4

Filename D:\flac rips\04 - The Forester.wav

Peak level 77.7 %
Extraction speed 2.4 X
Track quality 100.0 %
Test CRC 6F6077EC
Copy CRC 6F6077EC
Accurately ripped (confidence 1) [383761C8]
Copy OK

Track 5

Filename D:\flac rips\05 - A New Ground.wav

Peak level 55.6 %
Extraction speed 2.3 X
Track quality 100.0 %
Test CRC 0FD661D0
Copy CRC 0FD661D0
Accurately ripped (confidence 1) [3C83BAE8]
Copy OK

Track 6

Filename D:\flac rips\06 - You Know Who I am.wav

Peak level 74.7 %
Extraction speed 2.5 X
Track quality 100.0 %
Test CRC 138123A0
Copy CRC 138123A0
Accurately ripped (confidence 1) [C40B4DD1]
Copy OK

Track 7

Filename D:\flac rips\07 - Hangout.wav

Peak level 79.5 %
Extraction speed 2.7 X
Track quality 100.0 %
Test CRC 60E6E8A8
Copy CRC 60E6E8A8
Accurately ripped (confidence 1) [61E99327]
Copy OK

Track 8

Filename D:\flac rips\08 - O Solitude.wav

Peak level 87.7 %
Extraction speed 2.9 X
Track quality 100.0 %
Test CRC A634C86E
Copy CRC A634C86E
Accurately ripped (confidence 1) [FF8CC0F6]
Copy OK

Track 9

Filename D:\flac rips\09 - Wich Kill.wav

Peak level 70.6 %
Extraction speed 2.9 X
Track quality 100.0 %
Test CRC F28768A3
Copy CRC F28768A3
Accurately ripped (confidence 1) [F2874E4A]
Copy OK

Track 10

Filename D:\flac rips\10 - A New Scotch Tune.wav

Peak level 66.3 %
Extraction speed 2.3 X
Track quality 100.0 %
Test CRC 77A3D5E5
Copy CRC 77A3D5E5
Accurately ripped (confidence 1) [EBF778E3]
Copy OK

Track 11

Filename D:\flac rips\11 - Music for a While.wav

Peak level 73.1 %
Extraction speed 3.0 X
Track quality 100.0 %
Test CRC E66F3D4B
Copy CRC E66F3D4B
Accurately ripped (confidence 1) [7B56FA2E]
Copy OK

Track 12

Filename D:\flac rips\12 - A New Scotch Tune (var).wav

Peak level 42.6 %
Extraction speed 2.6 X
Track quality 100.0 %
Test CRC B6911C52
Copy CRC B6911C52
Accurately ripped (confidence 1) [AECDADD4]
Copy OK

Track 13

Filename D:\flac rips\13 - An Evening Hymn.wav

Peak level 80.7 %
Extraction speed 3.2 X
Track quality 100.0 %
Test CRC 3D7BF8B7
Copy CRC 3D7BF8B7
Accurately ripped (confidence 1) [2EE7B5E9]
Copy OK


All tracks accurately ripped

No errors occurred

End of status report

==== Log checksum 9DE4E1C7FD277B0BDCD1BE9F0F599205777F3D85B70BE13A81E2A410566416F0 ====


––––––––––––––––––––––––––––––––––––––––
Analyzed: Giovanna Pessi, Susanna Wallumrod / If Grief Could Wait
––––––––––––––––––––––––––––––––––––––––

DR Peak RMS Duration Track
––––––––––––––––––––––––––––––––––––––––
DR12 -3.06 dB -19.65 dB 6:17 01-The Plaint
DR12 -2.21 dB -20.45 dB 3:57 02-Who By Fire
DR13 -3.50 dB -21.18 dB 3:05 03-If Grief has any Pow'r to Kill
DR14 -2.19 dB -21.05 dB 9:52 04-The Forester
DR15 -5.09 dB -26.09 dB 3:02 05-A New Ground
DR12 -2.53 dB -19.95 dB 4:05 06-You Know Who I am
DR13 -1.99 dB -21.58 dB 5:35 07-Hangout
DR13 -1.14 dB -19.70 dB 6:14 08-O Solitude
DR14 -3.02 dB -22.96 dB 4:01 09-Wich Kill
DR13 -3.57 dB -24.45 dB 1:21 10-A New Scotch Tune
DR12 -2.72 dB -20.36 dB 4:06 11-Music for a While
DR9 -7.40 dB -21.53 dB 1:42 12-A New Scotch Tune (var)
DR13 -1.86 dB -20.79 dB 4:23 13-An Evening Hymn
––––––––––––––––––––––––––––––––––––––––

Number of tracks: 13
Official DR value: DR13

Samplerate: 44100 Hz
Channels: 2
Bits per sample: 16
Bitrate: 628 kbps
Codec: FLAC
================================================================================

Giovanna Pessi / Susanna Wallumrod - If Grief Could Wait (2011) {ECM 2226} [Re-Up]
Giovanna Pessi / Susanna Wallumrod - If Grief Could Wait (2011) {ECM 2226} [Re-Up]
Giovanna Pessi / Susanna Wallumrod - If Grief Could Wait (2011) {ECM 2226} [Re-Up]


Rip by jlgt