Subcategories

Gipsy Kings - Greatest Hits (1994)

Posted By: popsakov
Gipsy Kings - Greatest Hits (1994)

Gipsy Kings - Greatest Hits (1994)
EAC Rip | WV (Img) + Cue + Log ~ 473 Mb | MP3 CBR320 ~ 163 Mb
Scans (PNG, 400 dpi) ~ 60 Mb | RAR 5% Recovery
Flamenco | Columbia #COL 477242 2

After ten years of playing in the streets, at weddings, and in restaurants, the Gipsy Kings were swept away in a feast of commercial and critical success in the late '80s. By the late '90s, they had sold over 15 million albums worldwide and become one of the best-selling all-Spanish language acts in U.S. history. Their Greatest Hits collection, released in 1998, aptly reflects the time-perfected technique and soulful delivery that allowed them to transcend ethnic and age differences as few bands have. The introductory sequence of songs simply explodes out of the blocks. If consecutive hip-shakers "Djobi, Djoba," "Baila Me," "Bamboleo," "Pida Me La," "Bem, Bem, Maria," and "Volare" don't have you at least tapping your feet, someone ought to take your pulse. The tempo relaxes modestly in the middle section, with slower but equally moving love songs such as "Tu Quieres Volver" and "Mi Manera." The album finishes with a fluid medley of their most popular material. Wisely, seven of the album's 18 tracks were taken from the Gipsy Kings' 1988 self-titled debut, including "Bamboleo," "Djobi, Djoba," and "Moorea." However, it isn't easy to date their music, as most of it was written long before they had recorded in the studio. "Dona" and "Amor" are on a number of their earlier recordings, in addition to appearing on this compilation. Their seven-guitar version of the Migliacci Brothers' classic "Volare," a necessary addition for any greatest hits package, injects vigor and vitality into a song with dour lounge act connotations. If any fault is to be found with this collection, it might be the underrepresentation of the Love & Liberte album. But another, more complete double-CD greatest hits compilation (The Very Best of the Gipsy Kings) does exist for hardcore fans. This Greatest Hits album, accessible from start to finish, serves as an excellent introduction for just about any kind of music lover.
~ Kieran McCarthy, All Music
Gipsy Kings - Greatest Hits (1994)


***************

Gipsy Kings - Greatest Hits (1994)

Gipsy Kings - Greatest Hits (1994)

Track List:

01. Djobi Djoba [0:03:27.23]
02. Baila Me [0:03:47.25]
03. Bamboleo [0:03:25.62]
04. Pida Me La [0:03:18.65]
05. Bem, Bem, Maria [0:03:06.13]
06. Volare (Nel Blu Dipinto Di Blu) [0:03:41.22]
07. Moorea [0:04:03.43]
08. A Mi Manera (Comme D'Habitude) [0:03:54.37]
09. Un Amor [0:03:40.33]
10. Galaxia [0:02:37.20]
11. Escucha Me [0:04:39.37]
12. Tu Quieres Volver [0:03:14.65]
13. Soy [0:03:12.65]
14. La Quiero [0:03:45.58]
15. Allegria [0:02:50.22]
16. Vamos A Bailar [0:04:56.63]
17. La Dona [0:04:35.40]
18. Medley [0:04:48.10]

Exact Audio Copy V1.3 from 2. September 2016

EAC extraction logfile from 22. October 2016, 14:47

Gipsy Kings / Greatest Hits

Used drive : HL-DT-STDVDRAM GH24NSC0 Adapter: 1 ID: 0

Read mode : Secure
Utilize accurate stream : Yes
Defeat audio cache : Yes
Make use of C2 pointers : No

Read offset correction : 6
Overread into Lead-In and Lead-Out : No
Fill up missing offset samples with silence : Yes
Delete leading and trailing silent blocks : No
Null samples used in CRC calculations : Yes
Used interface : Native Win32 interface for Win NT & 2000

Used output format : Internal WAV Routines
Sample format : 44.100 Hz; 16 Bit; Stereo


TOC of the extracted CD

Track | Start | Length | Start sector | End sector
––––––––––––––––––––––––––––-
1 | 0:00.32 | 3:27.23 | 32 | 15579
2 | 3:27.55 | 3:47.25 | 15580 | 32629
3 | 7:15.05 | 3:25.62 | 32630 | 48066
4 | 10:40.67 | 3:18.65 | 48067 | 62981
5 | 13:59.57 | 3:06.13 | 62982 | 76944
6 | 17:05.70 | 3:41.22 | 76945 | 93541
7 | 20:47.17 | 4:03.43 | 93542 | 111809
8 | 24:50.60 | 3:54.37 | 111810 | 129396
9 | 28:45.22 | 3:40.33 | 129397 | 145929
10 | 32:25.55 | 2:37.20 | 145930 | 157724
11 | 35:03.00 | 4:39.37 | 157725 | 178686
12 | 39:42.37 | 3:14.65 | 178687 | 193301
13 | 42:57.27 | 3:12.65 | 193302 | 207766
14 | 46:10.17 | 3:45.58 | 207767 | 224699
15 | 49:56.00 | 2:50.22 | 224700 | 237471
16 | 52:46.22 | 4:56.63 | 237472 | 259734
17 | 57:43.10 | 4:35.40 | 259735 | 280399
18 | 62:18.50 | 4:48.10 | 280400 | 302009


Range status and errors

Selected range

Filename C:\Music CD\Gipsy Kings - Greatest Hits.wav

Peak level 100.0 %
Extraction speed 1.9 X
Range quality 99.9 %
Test CRC 136B2931
Copy CRC 136B2931
Copy OK

No errors occurred


AccurateRip summary

Track 1 accurately ripped (confidence 12) [672F7303] (AR v2)
Track 2 accurately ripped (confidence 12) [BA7596FE] (AR v2)
Track 3 accurately ripped (confidence 12) [D0D3161D] (AR v2)
Track 4 accurately ripped (confidence 12) [C90C16C4] (AR v2)
Track 5 accurately ripped (confidence 11) [B4DB47D5] (AR v2)
Track 6 accurately ripped (confidence 12) [893C2894] (AR v2)
Track 7 accurately ripped (confidence 12) [7AA9085D] (AR v2)
Track 8 accurately ripped (confidence 11) [BD7469E7] (AR v2)
Track 9 accurately ripped (confidence 11) [D4365A9A] (AR v2)
Track 10 accurately ripped (confidence 13) [EEDB2775] (AR v2)
Track 11 accurately ripped (confidence 11) [9CC77BB8] (AR v2)
Track 12 accurately ripped (confidence 11) [5A8C58A2] (AR v2)
Track 13 accurately ripped (confidence 11) [F17C2786] (AR v2)
Track 14 accurately ripped (confidence 10) [E3082A06] (AR v2)
Track 15 accurately ripped (confidence 12) [83EE2F89] (AR v2)
Track 16 accurately ripped (confidence 10) [02737250] (AR v2)
Track 17 accurately ripped (confidence 11) [F2AF1227] (AR v2)
Track 18 accurately ripped (confidence 11) [2A22EBF9] (AR v2)

All tracks accurately ripped

End of status report

–– CUETools DB Plugin V2.1.6

[CTDB TOCID: WmrTL_2cjxB_DMwS.KP9Yox9xXA-] found
Submit result: WmrTL_2cjxB_DMwS.KP9Yox9xXA- has been confirmed
Track | CTDB Status
1 | (262/311) Accurately ripped
2 | (257/311) Accurately ripped
3 | (259/311) Accurately ripped
4 | (258/311) Accurately ripped
5 | (260/311) Accurately ripped
6 | (261/311) Accurately ripped
7 | (260/311) Accurately ripped
8 | (258/311) Accurately ripped
9 | (256/311) Accurately ripped
10 | (260/311) Accurately ripped
11 | (258/311) Accurately ripped
12 | (256/311) Accurately ripped
13 | (256/311) Accurately ripped
14 | (255/311) Accurately ripped
15 | (252/311) Accurately ripped
16 | (249/311) Accurately ripped
17 | (254/311) Accurately ripped
18 | (248/311) Accurately ripped


==== Log checksum D21FEFF2E58427D3ED31FACC5D2CA5C3B6ABB3511F18E50F74ECD81287984348 ====

foobar2000 1.2.6 / Dynamic Range Meter 1.1.1
log date: 2017-04-28 00:24:20

––––––––––––––––––––––––––––––––––––––––
Analyzed: Gipsy Kings / Greatest Hits
––––––––––––––––––––––––––––––––––––––––

DR Peak RMS Duration Track
––––––––––––––––––––––––––––––––––––––––
DR9 0.00 dB -9.67 dB 3:27 01-Djobi Djoba
DR10 -0.23 dB -11.90 dB 3:47 02-Baila Me
DR10 0.00 dB -11.22 dB 3:26 03-Bamboleo
DR10 -0.05 dB -12.05 dB 3:19 04-Pida Me La
DR10 0.00 dB -11.19 dB 3:06 05-Bem, Bem, Maria
DR10 -0.05 dB -10.94 dB 3:41 06-Volare (Nel Blu Dipinto Di Blu)
DR8 0.00 dB -8.91 dB 4:04 07-Moorea
DR8 0.00 dB -9.85 dB 3:54 08-A Mi Manera (Comme D'Habitude)
DR7 0.00 dB -8.90 dB 3:40 09-Un Amor
DR11 0.00 dB -12.46 dB 2:37 10-Galaxia
DR11 0.00 dB -11.91 dB 4:39 11-Escucha Me
DR8 -0.03 dB -9.09 dB 3:15 12-Tu Quieres Volver
DR11 -0.11 dB -11.84 dB 3:13 13-Soy
DR12 -0.63 dB -13.33 dB 3:46 14-La Quiero
DR12 0.00 dB -12.70 dB 2:50 15-Allegria
DR10 -0.15 dB -11.71 dB 4:57 16-Vamos A Bailar
DR11 0.00 dB -12.41 dB 4:36 17-La Dona
DR9 -0.02 dB -10.73 dB 4:48 18-Medley
––––––––––––––––––––––––––––––––––––––––

Number of tracks: 18
Official DR value: DR10

Samplerate: 44100 Hz
Channels: 2
Bits per sample: 16
Bitrate: 932 kbps
Codec: WavPack
================================================================================

[CUETools log; Date: 28.04.2017 0:24:24; Version: 2.1.5]
Pregap length 00:00:32.
[CTDB TOCID: WmrTL_2cjxB_DMwS.KP9Yox9xXA-] found.
Track | CTDB Status
1 | (345/411) Accurately ripped
2 | (340/411) Accurately ripped
3 | (342/411) Accurately ripped
4 | (340/411) Accurately ripped
5 | (343/411) Accurately ripped
6 | (344/411) Accurately ripped
7 | (342/411) Accurately ripped
8 | (341/411) Accurately ripped
9 | (339/411) Accurately ripped
10 | (342/411) Accurately ripped
11 | (340/411) Accurately ripped
12 | (338/411) Accurately ripped
13 | (338/411) Accurately ripped
14 | (335/411) Accurately ripped
15 | (333/411) Accurately ripped
16 | (330/411) Accurately ripped
17 | (335/411) Accurately ripped
18 | (327/411) Accurately ripped
[AccurateRip ID: 002a1839-0233b431-150fba12] found.
Track [ CRC | V2 ] Status
01 [440affe3|672f7303] (018+012/537) Accurately ripped
02 [833565a4|ba7596fe] (019+012/545) Accurately ripped
03 [91441cd4|d0d3161d] (019+012/545) Accurately ripped
04 [47f16509|c90c16c4] (019+012/539) Accurately ripped
05 [22fd5875|b4db47d5] (019+011/536) Accurately ripped
06 [185b3194|893c2894] (020+012/547) Accurately ripped
07 [61d6fb38|7aa9085d] (020+012/539) Accurately ripped
08 [7a3005a5|bd7469e7] (020+011/538) Accurately ripped
09 [3d93ec3d|d4365a9a] (020+011/535) Accurately ripped
10 [b5cfa422|eedb2775] (020+013/540) Accurately ripped
11 [f05cc96c|9cc77bb8] (020+011/537) Accurately ripped
12 [b114c1df|5a8c58a2] (020+011/537) Accurately ripped
13 [a998e515|f17c2786] (020+011/537) Accurately ripped
14 [1e5233cf|e3082a06] (020+010/535) Accurately ripped
15 [34394961|83ee2f89] (019+012/534) Accurately ripped
16 [31b181e7|02737250] (020+010/519) Accurately ripped
17 [b0603bed|f2af1227] (020+011/529) Accurately ripped
18 [6768186c|2a22ebf9] (019+011/517) Accurately ripped
Offsetted by 331:
01 [bb4a76ce] (002/537) Accurately ripped
02 [48e8cb75] (002/545) Accurately ripped
03 [674147e0] (002/545) Accurately ripped
04 [cc779965] (002/539) Accurately ripped
05 [2d0049aa] (002/536) Accurately ripped
06 [cd1c00b0] (002/547) Accurately ripped
07 [4185dbfa] (002/539) Accurately ripped
08 [30c1127f] (002/538) Accurately ripped
09 [b50ed2fa] (002/535) Accurately ripped
10 [af1b0655] (002/540) Accurately ripped
11 [533cb4e3] (002/537) Accurately ripped
12 [52863a7b] (002/537) Accurately ripped
13 [8925b9b2] (002/537) Accurately ripped
14 [f567fa84] (002/535) Accurately ripped
15 [6066db77] (002/534) Accurately ripped
16 [23881f92] (002/519) Accurately ripped
17 [d531f2e8] (002/529) Accurately ripped
18 [d4609b61] (002/517) Accurately ripped
Offsetted by 604:
01 [a689a2bf] (011/537) Accurately ripped
02 [0bad7b78] (011/545) Accurately ripped
03 [4c56ebc4] (011/545) Accurately ripped
04 [0a976639] (011/539) Accurately ripped
05 [42680819] (011/536) Accurately ripped
06 [f83b69c4] (011/547) Accurately ripped
07 [9c6d7d60] (011/539) Accurately ripped
08 [1eb9ddad] (011/538) Accurately ripped
09 [77815681] (011/535) Accurately ripped
10 [d986d49e] (011/540) Accurately ripped
11 [2f3a3938] (011/537) Accurately ripped
12 [725c780f] (011/537) Accurately ripped
13 [2ca4b4d9] (011/537) Accurately ripped
14 [79f1d173] (011/535) Accurately ripped
15 [fb2bc419] (011/534) Accurately ripped
16 [72574bc3] (010/519) Accurately ripped
17 [bb1a7809] (011/529) Accurately ripped
18 [3cf2cb10] (007/517) Accurately ripped
Offsetted by 702:
01 [0ead70e1] (005/537) Accurately ripped
02 [c12f2a3e] (005/545) Accurately ripped
03 [70a0548c] (005/545) Accurately ripped
04 [5567bce1] (005/539) Accurately ripped
05 [7e9a66b7] (005/536) Accurately ripped
06 [abd088ec] (005/547) Accurately ripped
07 [dde175ac] (005/539) Accurately ripped
08 [94f8eb89] (005/538) Accurately ripped
09 [c3def54f] (005/535) Accurately ripped
10 [6c096d70] (005/540) Accurately ripped
11 [017af922] (005/537) Accurately ripped
12 [70a96037] (005/537) Accurately ripped
13 [04df6ae7] (005/537) Accurately ripped
14 [056b8111] (005/535) Accurately ripped
15 [0b5831dd] (005/534) Accurately ripped
16 [8ea1aa65] (005/519) Accurately ripped
17 [48b6248b] (005/529) Accurately ripped
18 [0696dc2e] (005/517) Accurately ripped
Offsetted by 871:
01 [5729e16a] (012/537) Accurately ripped
02 [b3a8ec89] (012/545) Accurately ripped
03 [9ceaadd0] (012/545) Accurately ripped
04 [880db595] (012/539) Accurately ripped
05 [7379198e] (012/536) Accurately ripped
06 [037643e0] (012/547) Accurately ripped
07 [b4a19ca2] (011/539) Accurately ripped
08 [590cd707] (012/538) Accurately ripped
09 [300d777e] (011/535) Accurately ripped
10 [0033c891] (012/540) Accurately ripped
11 [4cb6636f] (011/537) Accurately ripped
12 [e5e4dbab] (011/537) Accurately ripped
13 [45835bb6] (011/537) Accurately ripped
14 [f5f19868] (011/535) Accurately ripped
15 [8fb9b5af] (012/534) Accurately ripped
16 [088fa12e] (011/519) Accurately ripped
17 [fb9b6ac4] (012/529) Accurately ripped
18 [3b221e45] (009/517) Accurately ripped
Offsetted by 875:
01 [d393d4ee] (032/537) Accurately ripped
02 [c5846bd5] (032/545) Accurately ripped
03 [55414460] (034/545) Accurately ripped
04 [087eb3e5] (031/539) Accurately ripped
05 [6108378a] (030/536) Accurately ripped
06 [6e0ea330] (034/547) Accurately ripped
07 [e11948ba] (030/539) Accurately ripped
08 [d0d0b83f] (030/538) Accurately ripped
09 [8bfc63da] (031/535) Accurately ripped
10 [ad5daf75] (031/540) Accurately ripped
11 [210c9f83] (030/537) Accurately ripped
12 [58c36cfb] (030/537) Accurately ripped
13 [a1ee3e92] (030/537) Accurately ripped
14 [fba2f864] (030/535) Accurately ripped
15 [e933afb7] (029/534) Accurately ripped
16 [2e4985b2] (030/519) Accurately ripped
17 [69e07708] (030/529) Accurately ripped
18 [820eb141] (030/517) Accurately ripped
Offsetted by 922:
01 [c970c23d] (002/537) Accurately ripped
02 [97578392] (002/545) Accurately ripped
03 [0b3aad7c] (002/545) Accurately ripped
04 [edae6011] (002/539) Accurately ripped
05 [8859d7db] (002/536) Accurately ripped
06 [928d031c] (002/547) Accurately ripped
07 [6b976ed4] (002/539) Accurately ripped
08 [500e4e91] (002/538) Accurately ripped
09 [8433bd13] (002/535) Accurately ripped
10 [a00a086c] (002/540) Accurately ripped
11 [a001e16e] (002/537) Accurately ripped
12 [1e7a9867] (002/537) Accurately ripped
13 [dfd6282b] (002/537) Accurately ripped
14 [3e872035] (002/535) Accurately ripped
15 [448ce995] (002/534) Accurately ripped
16 [a991c2c1] (002/519) Accurately ripped
17 [f98bc727] (002/529) Accurately ripped
18 [436a7052] (002/517) Accurately ripped
Offsetted by 1733:
01 [925a5f08] (146/537) Accurately ripped
02 [bbee9503] (146/545) Accurately ripped
03 [49ce6c08] (145/545) Accurately ripped
04 [a72bc9ed] (146/539) Accurately ripped
05 [ed72d730] (146/536) Accurately ripped
06 [3eba7fb8] (146/547) Accurately ripped
07 [235efad6] (145/539) Accurately ripped
08 [2a70edab] (148/538) Accurately ripped
09 [13ad6ef0] (146/535) Accurately ripped
10 [c4f9a57f] (146/540) Accurately ripped
11 [8b4df645] (147/537) Accurately ripped
12 [98402e83] (146/537) Accurately ripped
13 [117d53e8] (145/537) Accurately ripped
14 [c0c1e50a] (144/535) Accurately ripped
15 [61e7af6b] (142/534) Accurately ripped
16 [4a8b7e4c] (141/519) Accurately ripped
17 [cebb3e02] (141/529) Accurately ripped
18 [ef47d967] (139/517) Accurately ripped
Offsetted by -469:
01 [888437ae] (000/537) No match (V2 was not tested)
02 [556d5815] (000/545) No match (V2 was not tested)
03 [639ba760] (000/545) No match (V2 was not tested)
04 [7430eae5] (000/539) No match (V2 was not tested)
05 [9530dcca] (000/536) No match (V2 was not tested)
06 [86118a30] (000/547) No match (V2 was not tested)
07 [8407693a] (000/539) No match (V2 was not tested)
08 [9fb91ebf] (000/538) No match (V2 was not tested)
09 [e2662b1a] (000/535) No match (V2 was not tested)
10 [665ea435] (000/540) No match
11 [6fddc543] (000/537) No match (V2 was not tested)
12 [94a4b3fb] (000/537) No match (V2 was not tested)
13 [55a47dd2] (000/537) No match (V2 was not tested)
14 [82d4fda4] (000/535) No match (V2 was not tested)
15 [791b8537] (000/534) No match (V2 was not tested)
16 [aa4d9872] (000/519) No match (V2 was not tested)
17 [af405dc8] (000/529) No match (V2 was not tested)
18 [6b8dc681] (000/517) No match (V2 was not tested)
Offsetted by 207:
01 [aa75f9d2] (000/537) No match (V2 was not tested)
02 [1f546141] (000/545) No match (V2 was not tested)
03 [14c50c70] (000/545) No match (V2 was not tested)
04 [3ec8cdb5] (000/539) No match (V2 was not tested)
05 [68aba826] (000/536) No match (V2 was not tested)
06 [e4a87600] (000/547) No match (V2 was not tested)
07 [df080512] (000/539) No match (V2 was not tested)
08 [b008ccb7] (000/538) No match (V2 was not tested)
09 [932033d6] (000/535) No match (V2 was not tested)
10 [b70810b9] (000/540) No match (V2 was not tested)
11 [9ccb6e77] (000/537) No match (V2 was not tested)
12 [6992a1cb] (000/537) No match (V2 was not tested)
13 [5834410e] (000/537) No match (V2 was not tested)
14 [44ed5b00] (000/535) No match (V2 was not tested)
15 [8aa1947f] (000/534) No match (V2 was not tested)
16 [92057396] (000/519) No match (V2 was not tested)
17 [7ad576ac] (000/529) No match (V2 was not tested)
18 [3dbacedd] (000/517) No match (V2 was not tested)
Offsetted by 1739:
01 [ccf94c4e] (000/537) No match
02 [d6b7d3f5] (000/545) No match
03 [de504de0] (000/545) No match
04 [67d54765] (000/539) No match
05 [d1c9842a] (000/536) No match
06 [5e9f0eb0] (000/547) No match
07 [66127cfa] (000/539) No match
08 [de16bf7f] (000/538) No match
09 [1d93d17a] (000/535) No match (V2 was not tested)
10 [c8b87fd5] (000/540) No match
11 [49cf5063] (000/537) No match
12 [448e087b] (000/537) No match
13 [9c1da832] (000/537) No match
14 [c94bf504] (000/535) No match
15 [681ea677] (000/534) No match
16 [03225512] (000/519) No match
17 [7422d068] (000/529) No match
18 [59aab5e1] (000/517) No match

Track Peak [ CRC32 ] [W/O NULL] [ LOG ]
– 100,0 [136B2931] [A52D1F4F] CRC32
01 100,0 [735A62EF] [05D9FB07]
02 97,3 [7A8CFE87] [F66710E9]
03 100,0 [93E4F2B9] [53FE73A9]
04 99,4 [B466F88F] [CD99611F]
05 100,0 [2C943787] [8FBD87C4]
06 99,4 [53C5DCC2] [8AB32DE3]
07 99,9 [9957489E] [17B54DAC]
08 100,0 [67FF5017] [8191078E]
09 99,9 [EDD30789] [7A59E4E8]
10 100,0 [821A930C] [3F8187D3]
11 100,0 [91BD6216] [B7A32C58]
12 99,6 [C9D54B17] [509E7F12]
13 98,7 [A394C02C] [B63F65F8]
14 92,9 [9FA59B71] [A656ABFA]
15 100,0 [7D11EFFB] [A9BB7689]
16 98,2 [CB9ECA07] [F8750230]
17 100,0 [F20F8278] [52053DA3]
18 99,8 [91BB157F] [C05C2E8A]

Gipsy Kings - Greatest Hits (1994)

All thanks go to Anna

>>> My Blog <<<