Subcategories

Gipsy Kings - Love Songs (1996) Repost

Posted By: popsakov
Gipsy Kings - Love Songs (1996) Repost

Gipsy Kings - Love Songs (1996)
EAC Rip | FLAC (Img) + Cue + Log ~ 403 Mb | MP3 CBR320 ~ 165 Mb
Scans Included (JPG, 600 dpi) | RAR 5% Recovery
Latin, Flamenco | Columbia #484395 2 / 01-484395-10

Love Songs is a "best of" album by the French Rumba Catalana band Gipsy Kings, which was released in 1996. It includes the new unreleased song "Gitano Soy". A US release of this album has been released in 1998 for USA audience under the name Cantos de Amor. The Gipsy Kings are a group of flamenco, salsa and pop musicians from Arles and Montpellier in the south of France, who perform in Andalusian Spanish. Although group members were born in France, their parents were mostly gitanos, Spanish gypsies who fled Catalonia during the 1930s Spanish Civil War. They are known for bringing Catalan rumba, a pop-oriented music distantly derived from traditional flamenco music, to worldwide audiences. The group originally called itself Los Reyes. Their music has a particular rumba flamenca style, with pop influences; many songs of the Gipsy Kings fit social dances, such as salsa and rumba. Their music has been described as a place where "Spanish flamenco and gypsy rhapsody meet salsa funk".
~ Wiki

***************

Gipsy Kings - Love Songs (1996) Repost

Gipsy Kings - Love Songs (1996) Repost

Track List:

01. Gipsy Kings / Un Amor [3:40]
02. Gitano Soy [4:28]
03. A Mi Manera [3:52]
04. No Volvere [3:51]
05. Love And Liberte [3:55]
06. Quiero Saber [4:07]
07. Mi Corazon [4:30]
08. Caminando Por La Calle [4:18]
09. Madre Mia [3:51]
10. Passion [3:01]
11. Habla Me [4:05]
12. Tu Quieres Volver [3:13]
13. Mujer [4:16]
14. Trista Pena [4:31]
15. Inspiration [3:42]

Exact Audio Copy V0.99 prebeta 4 from 23. January 2008

EAC extraction logfile from 15. April 2009, 16:33

Gipsy Kings / Love Songs

Used drive : PIONEER DVD-RW DVR-110 Adapter: 0 ID: 1

Read mode : Secure
Utilize accurate stream : Yes
Defeat audio cache : Yes
Make use of C2 pointers : No

Read offset correction : 48
Overread into Lead-In and Lead-Out : No
Fill up missing offset samples with silence : Yes
Delete leading and trailing silent blocks : No
Null samples used in CRC calculations : Yes
Used interface : Native Win32 interface for Win NT & 2000

Used output format : User Defined Encoder
Selected bitrate : 128 kBit/s
Quality : High
Add ID3 tag : No
Command line compressor : C:\Program Files\Exact Audio Copy\Flac\flac.exe
Additional command line options : -8 -V -T "ARTIST=%a" -T "TITLE=%t" -T "ALBUM=%g" -T "DATE=%y" -T "TRACKNUMBER=%n" -T "GENRE=%m" -T "COMMENT=EAC FLAC -8" %s


TOC of the extracted CD

Track | Start | Length | Start sector | End sector
––––––––––––––––––––––––––––-
1 | 0:00.00 | 3:40.20 | 0 | 16519
2 | 3:40.20 | 4:27.70 | 16520 | 36614
3 | 8:08.15 | 3:52.32 | 36615 | 54046
4 | 12:00.47 | 3:50.43 | 54047 | 71339
5 | 15:51.15 | 3:55.02 | 71340 | 88966
6 | 19:46.17 | 4:07.05 | 88967 | 107496
7 | 23:53.22 | 4:29.45 | 107497 | 127716
8 | 28:22.67 | 4:17.60 | 127717 | 147051
9 | 32:40.52 | 3:50.63 | 147052 | 164364
10 | 36:31.40 | 3:01.05 | 164365 | 177944
11 | 39:32.45 | 4:05.15 | 177945 | 196334
12 | 43:37.60 | 3:13.15 | 196335 | 210824
13 | 46:51.00 | 4:15.67 | 210825 | 230016
14 | 51:06.67 | 4:30.63 | 230017 | 250329
15 | 55:37.55 | 3:42.25 | 250330 | 267004


Range status and errors

Selected range

Filename C:\Music\WORK\Gipsy Kings - Love Songs.wav

Peak level 100.0 %
Range quality 99.9 %
Copy CRC 326B86EE
Copy OK

No errors occurred

End of status report

foobar2000 1.3.16 / Dynamic Range Meter 1.1.1
log date: 2018-08-29 12:11:02

––––––––––––––––––––––––––––––––––––––––
Analyzed: Gipsy Kings / Love Songs
––––––––––––––––––––––––––––––––––––––––

DR Peak RMS Duration Track
––––––––––––––––––––––––––––––––––––––––
DR10 -0.58 dB -12.40 dB 3:40 01-Gipsy Kings / Un Amor
DR12 -0.20 dB -14.35 dB 4:28 02-Gitano Soy
DR10 0.00 dB -12.57 dB 3:52 03-A Mi Manera
DR12 0.00 dB -14.29 dB 3:51 04-No Volvere
DR12 -0.20 dB -14.45 dB 3:55 05-Love And Liberte
DR11 0.00 dB -12.87 dB 4:07 06-Quiero Saber
DR10 -0.13 dB -11.36 dB 4:30 07-Mi Corazon
DR12 0.00 dB -15.75 dB 4:18 08-Caminando Por La Calle
DR10 0.00 dB -12.99 dB 3:51 09-Madre Mia
DR14 0.00 dB -15.65 dB 3:01 10-Passion
DR12 -0.37 dB -14.57 dB 4:05 11-Habla Me
DR11 0.00 dB -11.98 dB 3:13 12-Tu Quieres Volver
DR9 -0.23 dB -11.09 dB 4:16 13-Mujer
DR11 -0.41 dB -13.88 dB 4:31 14-Trista Pena
DR10 0.00 dB -10.50 dB 3:42 15-Inspiration
––––––––––––––––––––––––––––––––––––––––

Number of tracks: 15
Official DR value: DR11

Samplerate: 44100 Hz
Channels: 2
Bits per sample: 16
Bitrate: 854 kbps
Codec: FLAC
================================================================================

[CUETools log; Date: 29.08.2018 12:07:20; Version: 2.1.6]
[CTDB TOCID: sIH5IqE1ubC_v1hkAaGRvxtqlAM-] found.
Track | CTDB Status
1 | (141/146) Accurately ripped
2 | (140/146) Accurately ripped
3 | (140/146) Accurately ripped
4 | (139/146) Accurately ripped
5 | (138/146) Accurately ripped
6 | (137/146) Accurately ripped
7 | (137/146) Accurately ripped
8 | (137/146) Accurately ripped
9 | (137/146) Accurately ripped
10 | (139/146) Accurately ripped
11 | (139/146) Accurately ripped
12 | (139/146) Accurately ripped
13 | (136/146) Accurately ripped
14 | (128/146) Accurately ripped
15 | (135/146) Accurately ripped
[AccurateRip ID: 0020c111-0172abdd-d00de80f] found.
Track [ CRC | V2 ] Status
01 [1cf5fe9d|46521866] (16+24/73) Accurately ripped
02 [1f0d4ba5|bc84e78d] (15+24/72) Accurately ripped
03 [7c388613|fda8afa4] (15+23/70) Accurately ripped
04 [4940e714|c5bc46a2] (16+23/71) Accurately ripped
05 [e378fe7a|da9e6c49] (16+23/71) Accurately ripped
06 [3de92e90|b286f955] (15+23/70) Accurately ripped
07 [6260893c|7c9f070a] (15+23/71) Accurately ripped
08 [92046478|0df7cc73] (16+23/71) Accurately ripped
09 [ffdb1fa4|5e9f9997] (15+22/69) Accurately ripped
10 [632f413e|5b472d77] (16+23/71) Accurately ripped
11 [c0489fbb|587f3cbc] (15+23/70) Accurately ripped
12 [8a3cd801|63604932] (16+23/72) Accurately ripped
13 [7a0d37b1|9d4bd600] (15+23/70) Accurately ripped
14 [3ba29577|a189ccc6] (14+23/69) Accurately ripped
15 [d2eea71c|9e052832] (15+23/71) Accurately ripped
Offsetted by -659:
01 [f9ce2d83] (07/73) Accurately ripped
02 [9f68db33] (07/72) Accurately ripped
03 [bae5e380] (07/70) Accurately ripped
04 [3a988d71] (07/71) Accurately ripped
05 [f2824a11] (07/71) Accurately ripped
06 [24e95da8] (07/70) Accurately ripped
07 [a580047a] (07/71) Accurately ripped
08 [d2b1d481] (07/71) Accurately ripped
09 [b0d89364] (07/69) Accurately ripped
10 [9b7a70b3] (07/71) Accurately ripped
11 [e5116633] (07/70) Accurately ripped
12 [a76f4af6] (07/72) Accurately ripped
13 [820d364a] (07/70) Accurately ripped
14 [e4e23a9c] (07/69) Accurately ripped
15 [1adfde41] (07/71) Accurately ripped
Offsetted by -274:
01 [22eec341] (03/73) Accurately ripped
02 [60bf1918] (03/72) Accurately ripped
03 [2809bda2] (03/70) Accurately ripped
04 [0bc83aea] (03/71) Accurately ripped
05 [2d13101c] (03/71) Accurately ripped
06 [38f48620] (03/70) Accurately ripped
07 [b572acf0] (03/71) Accurately ripped
08 [06fd44b7] (02/71) Accurately ripped
09 [937eb855] (02/69) Accurately ripped
10 [62f5c6c6] (03/71) Accurately ripped
11 [261556f7] (03/70) Accurately ripped
12 [a778471f] (03/72) Accurately ripped
13 [58dca827] (02/70) Accurately ripped
14 [b1c420e0] (03/69) Accurately ripped
15 [611d8a47] (03/71) Accurately ripped
Offsetted by -271:
01 [fab12d7b] (06/73) Accurately ripped
02 [85f3fae9] (06/72) Accurately ripped
03 [0b39bb8a] (06/70) Accurately ripped
04 [7d732653] (06/71) Accurately ripped
05 [35839e77] (06/71) Accurately ripped
06 [5509e388] (06/70) Accurately ripped
07 [87b11352] (06/71) Accurately ripped
08 [29828d22] (06/71) Accurately ripped
09 [b736283b] (06/69) Accurately ripped
10 [771e4e91] (06/71) Accurately ripped
11 [d5edc48d] (06/70) Accurately ripped
12 [b619431a] (06/72) Accurately ripped
13 [0abe5b3e] (06/70) Accurately ripped
14 [614f3ab3] (06/69) Accurately ripped
15 [b80b9faa] (06/71) Accurately ripped
Offsetted by -664:
01 [9234d1cd] (00/73) No match (V2 was not tested)
02 [0eddcf17] (00/72) No match (V2 was not tested)
03 [ed609051] (00/70) No match (V2 was not tested)
04 [616f523b] (00/71) No match (V2 was not tested)
05 [3d200c7f] (00/71) No match (V2 was not tested)
06 [f61b1750] (00/70) No match (V2 was not tested)
07 [f1c2af2c] (00/71) No match (V2 was not tested)
08 [0f1ae502] (00/71) No match (V2 was not tested)
09 [c3988e89] (00/69) No match (V2 was not tested)
10 [ec7a887e] (00/71) No match (V2 was not tested)
11 [3755b64c] (00/70) No match (V2 was not tested)
12 [39b851a9] (00/72) No match (V2 was not tested)
13 [043fb679] (00/70) No match (V2 was not tested)
14 [d2febb1f] (00/69) No match (V2 was not tested)
15 [4f065894] (00/71) No match (V2 was not tested)

Track Peak [ CRC32 ] [W/O NULL] [ LOG ]
– 100,0 [326B86EE] [F3F0DD98] CRC32
01 93,5 [53F33A39] [0EE6EB34]
02 97,7 [1CB11463] [8EB46900]
03 100,0 [03ED273B] [97388623]
04 100,0 [F1AC9104] [E67EBAE5]
05 97,7 [46FF1C7A] [B6EC70C6]
06 100,0 [D363148D] [35772AEC]
07 98,5 [687694EB] [B00F83AF]
08 100,0 [465310E4] [9E022C4C]
09 100,0 [6EE6CA38] [C1346EFD]
10 100,0 [7D06EFC8] [0A8AFFDA]
11 95,8 [16566747] [57923A5C]
12 100,0 [92BC3B8D] [386455B7]
13 97,4 [7716AD92] [62ACA843]
14 95,3 [854DDD8C] [D23CEB34]
15 100,0 [81C0E231] [57994A37]

Gipsy Kings - Love Songs (1996) Repost

See also:
Gipsy Kings - Greatest Hits (1994)
Gipsy Kings - The Essential Gipsy Kings (1999) {2015, Blu-Spec CD2, Japanese Reissue}

All thanks go to the original ripper(s) …

>>> My Blog <<<

Download from icerbox.com: