Subcategories

Gipsy Kings - The Essential Gipsy Kings (1999) {2015, Blu-Spec CD2, Japanese Reissue}

Posted By: popsakov
Gipsy Kings - The Essential Gipsy Kings (1999) {2015, Blu-Spec CD2, Japanese Reissue}

Gipsy Kings - The Essential Gipsy Kings (1999) {2015, Blu-Spec CD2, Japanese Reissue}
2CD | EAC Rip | FLAC (Img) + Cue + Log ~ 1,04 Gb | MP3 CBR320 ~ 364 Mb
Full Scans (JPG, 300 dpi) ~ 30 Mb | RAR 5% Recovery
Latin, Flamenco | Sony Music Labels #SICP 30852~3

There's very little doubt that the Gipsy Kings are good at what they do–they've become the brand name in Sevillana, the pop-oriented flamenco style. Since 1989, when the single "Bamboleo" and their Gipsy Kings album broke through and went gold in the United States, they've found a willing audience in America for their style, which, while flashy, doesn't demand a great deal of the listener, unlike more hardcore versions of flamenco. This double set collects 38 of their biggest tracks, including a version of the Eagles' "Hotel California," into one package guaranteed to satisfy fans of their precise, jubilant playing. And there's no denying they have the power to move people with their singing and fretwork, making this a must for those who want to experience all the familiar material in one sitting. Like the band themselves, the record is an unqualified success as a greatest hits package.

***************

Gipsy Kings - The Essential Gipsy Kings (1999) {2015, Blu-Spec CD2, Japanese Reissue}

Track List CD1:

01. Volare (Nel Blu Di Pinto Di Blu) [3:40]
02. Bamboleo [3:24]
03. Djobi Djoba [3:25]
04. Bem, Bem, Maria [3:05]
05. Baila Me [3:45]
06. Pida Me La [3:11]
07. Soy [3:11]
08. Sin Ella (live) [4:36]
09. Vamos A Bailar [4:55]
10. A Ti A Ti [3:45]
11. La Rumba de Nicolas [3:56]
12. No Vivire [4:08]
13. Allegria (instrumental) (live) [2:54]
14. La Dona (live) [4:38]
15. Oy [4:50]
16. A Tu Vera [3:12]
17. Solo Por Ti (Amiwawa) [4:00]
18. Oh Eh Oh Eh [3:20]
19. A Mi Manera (Comme D'Habitude) [3:52]
20. Hitmix '99 (radio edit) [3:54]

Exact Audio Copy V1.1 from 23. June 2015

EAC extraction logfile from 12. May 2018, 19:52

Gipsy Kings / The Very Best Of CD1

Used drive : TSSTcorpDVDWBD SH-B123L Adapter: 0 ID: 4

Read mode : Secure
Utilize accurate stream : Yes
Defeat audio cache : Yes
Make use of C2 pointers : No

Read offset correction : 6
Overread into Lead-In and Lead-Out : No
Fill up missing offset samples with silence : Yes
Delete leading and trailing silent blocks : No
Null samples used in CRC calculations : Yes
Used interface : Installed external ASPI interface

Used output format : User Defined Encoder
Selected bitrate : 768 kBit/s
Quality : High
Add ID3 tag : No
Command line compressor : C:\Program Files (x86)\Exact Audio Copy\FLAC\FLAC.EXE
Additional command line options : -6 -V -T "ARTIST=%artist%" -T "TITLE=%title%" -T "ALBUM=%albumtitle%" -T "DATE=%year%" -T "TRACKNUMBER=%tracknr%" -T "GENRE=%genre%" -T "COMMENT=%comment%" -T "BAND=%albuminterpret%" -T "ALBUMARTIST=%albuminterpret%" -T "COMPOSER=%composer%" %haslyrics%–tag-from-file=LYRICS="%lyricsfile%"%haslyrics% -T "DISCNUMBER=%cdnumber%" -T "TOTALDISCS=%totalcds%" -T "TOTALTRACKS=%numtracks%" %hascover%–picture="%coverfile%"%hascover% %source% -o %dest%


TOC of the extracted CD

Track | Start | Length | Start sector | End sector
––––––––––––––––––––––––––––-
1 | 0:00.00 | 3:39.50 | 0 | 16474
2 | 3:39.50 | 3:24.25 | 16475 | 31799
3 | 7:04.00 | 3:25.12 | 31800 | 47186
4 | 10:29.12 | 3:04.65 | 47187 | 61051
5 | 13:34.02 | 3:45.15 | 61052 | 77941
6 | 17:19.17 | 3:11.25 | 77942 | 92291
7 | 20:30.42 | 3:11.25 | 92292 | 106641
8 | 23:41.67 | 4:35.53 | 106642 | 127319
9 | 28:17.45 | 4:55.12 | 127320 | 149456
10 | 33:12.57 | 3:45.15 | 149457 | 166346
11 | 36:57.72 | 3:56.00 | 166347 | 184046
12 | 40:53.72 | 4:07.40 | 184047 | 202611
13 | 45:01.37 | 2:53.63 | 202612 | 215649
14 | 47:55.25 | 4:37.40 | 215650 | 236464
15 | 52:32.65 | 4:50.37 | 236465 | 258251
16 | 57:23.27 | 3:11.65 | 258252 | 272641
17 | 60:35.17 | 3:59.63 | 272642 | 290629
18 | 64:35.05 | 3:20.27 | 290630 | 305656
19 | 67:55.32 | 3:52.15 | 305657 | 323071
20 | 71:47.47 | 3:53.53 | 323072 | 340599


Range status and errors

Selected range

Filename E:\MUSIC\Gipsy Kings - The Very Best Of CD1.wav

Peak level 99.0 %
Extraction speed 4.0 X
Range quality 100.0 %
Test CRC 89E0E20D
Copy CRC 89E0E20D
Copy OK

No errors occurred


AccurateRip summary

Track 1 accurately ripped (confidence 11) [7426D55A] (AR v2)
Track 2 accurately ripped (confidence 11) [7955C895] (AR v2)
Track 3 accurately ripped (confidence 11) [11867648] (AR v2)
Track 4 accurately ripped (confidence 11) [CDD42474] (AR v2)
Track 5 accurately ripped (confidence 11) [4BBB3F16] (AR v2)
Track 6 accurately ripped (confidence 11) [5D47A534] (AR v2)
Track 7 accurately ripped (confidence 11) [973CCF6C] (AR v2)
Track 8 accurately ripped (confidence 11) [9EF639D2] (AR v2)
Track 9 accurately ripped (confidence 11) [1E1C396A] (AR v2)
Track 10 accurately ripped (confidence 10) [7BFCC9B4] (AR v2)
Track 11 accurately ripped (confidence 10) [44B24806] (AR v2)
Track 12 accurately ripped (confidence 10) [07945782] (AR v2)
Track 13 accurately ripped (confidence 10) [A92E107C] (AR v2)
Track 14 accurately ripped (confidence 10) [8BF3478B] (AR v2)
Track 15 accurately ripped (confidence 10) [7BC4D75D] (AR v2)
Track 16 accurately ripped (confidence 10) [2C7C11B2] (AR v2)
Track 17 accurately ripped (confidence 10) [01E1C6C1] (AR v2)
Track 18 accurately ripped (confidence 10) [C03E6D2B] (AR v2)
Track 19 accurately ripped (confidence 11) [74465E29] (AR v2)
Track 20 accurately ripped (confidence 11) [8BD4D232] (AR v2)

All tracks accurately ripped

End of status report

==== Log checksum 3E4E06533F8CFF3279850728961227A08335AE730535513961CDBBA94C494A67 ====

foobar2000 1.3.16 / Dynamic Range Meter 1.1.1
log date: 2018-05-21 15:52:59

––––––––––––––––––––––––––––––––––––––––
Analyzed: Gipsy Kings / The Very Best Of CD1
––––––––––––––––––––––––––––––––––––––––

DR Peak RMS Duration Track
––––––––––––––––––––––––––––––––––––––––
DR10 -0.12 dB -11.35 dB 3:40 01-Volare (Nel Blu Di Pinto Di Blu)
DR10 -1.00 dB -12.37 dB 3:24 02-Bamboleo
DR10 -0.08 dB -10.76 dB 3:25 03-Djobi Djoba
DR8 -2.17 dB -11.22 dB 3:05 04-Bem, Bem, Maria
DR8 -1.15 dB -10.87 dB 3:45 05-Baila Me
DR9 -1.17 dB -10.87 dB 3:11 06-Pida Me La
DR10 -0.09 dB -11.08 dB 3:11 07-Soy
DR9 -0.17 dB -11.07 dB 4:36 08-Sin Ella (live)
DR8 -1.64 dB -11.27 dB 4:55 09-Vamos A Bailar
DR9 -1.65 dB -11.48 dB 3:45 10-A Ti A Ti
DR9 -1.63 dB -12.22 dB 3:56 11-La Rumba de Nicolas
DR10 -1.12 dB -12.28 dB 4:08 12-No Vivire
DR10 -0.66 dB -11.94 dB 2:54 13-Allegria (instrumental) (live)
DR10 -0.08 dB -11.63 dB 4:38 14-La Dona (live)
DR10 -0.09 dB -11.57 dB 4:50 15-Oy
DR9 -0.26 dB -10.86 dB 3:12 16-A Tu Vera
DR9 -1.14 dB -11.17 dB 4:00 17-Solo Por Ti (Amiwawa)
DR6 -2.75 dB -10.66 dB 3:20 18-Oh Eh Oh Eh
DR8 -2.01 dB -11.80 dB 3:52 19-A Mi Manera (Comme D'Habitude)
DR7 -2.68 dB -10.70 dB 3:54 20-Hitmix '99 (radio edit)
––––––––––––––––––––––––––––––––––––––––

Number of tracks: 20
Official DR value: DR9

Samplerate: 44100 Hz
Channels: 2
Bits per sample: 16
Bitrate: 974 kbps
Codec: FLAC
================================================================================

[CUETools log; Date: 21.05.2018 15:53:21; Version: 2.1.6]
[CTDB TOCID: N_4gITd.UbAun5ZnCBvImoHi8SY-] found.
Track | CTDB Status
1 | (257/263) Accurately ripped
2 | (260/263) Accurately ripped
3 | (263/263) Accurately ripped
4 | (261/263) Accurately ripped
5 | (261/263) Accurately ripped
6 | (261/263) Accurately ripped
7 | (260/263) Accurately ripped
8 | (259/263) Accurately ripped
9 | (259/263) Accurately ripped
10 | (261/263) Accurately ripped
11 | (261/263) Accurately ripped
12 | (261/263) Accurately ripped
13 | (260/263) Accurately ripped
14 | (260/263) Accurately ripped
15 | (259/263) Accurately ripped
16 | (261/263) Accurately ripped
17 | (260/263) Accurately ripped
18 | (256/263) Accurately ripped
19 | (255/263) Accurately ripped
20 | (250/263) Accurately ripped
[AccurateRip ID: 00357fdd-0317bef6-2211bd14] found.
Track [ CRC | V2 ] Status
01 [0349d028|7426d55a] (000+011/181) Accurately ripped
02 [19c28ecc|7955c895] (000+011/182) Accurately ripped
03 [d3bb3549|11867648] (000+011/180) Accurately ripped
04 [c27119aa|cdd42474] (000+011/181) Accurately ripped
05 [45a91c96|4bbb3f16] (000+011/180) Accurately ripped
06 [cce99f9f|5d47a534] (000+011/178) Accurately ripped
07 [4dfeede5|973ccf6c] (000+011/179) Accurately ripped
08 [e73a1ba4|9ef639d2] (000+011/178) Accurately ripped
09 [923b7ef0|1e1c396a] (000+011/178) Accurately ripped
10 [9aec197d|7bfcc9b4] (000+010/177) Accurately ripped
11 [a2318b49|44b24806] (000+010/176) Accurately ripped
12 [44ad98a6|07945782] (000+010/176) Accurately ripped
13 [82d07d95|a92e107c] (000+010/173) Accurately ripped
14 [5f334344|8bf3478b] (000+010/178) Accurately ripped
15 [697b8b30|7bc4d75d] (000+010/175) Accurately ripped
16 [d681d80a|2c7c11b2] (000+010/177) Accurately ripped
17 [88ac7ad1|01e1c6c1] (000+010/177) Accurately ripped
18 [3e8bd2e9|c03e6d2b] (000+010/171) Accurately ripped
19 [c6f9fb1c|74465e29] (000+011/175) Accurately ripped
20 [5e8c02a6|8bd4d232] (000+011/172) Accurately ripped
Offsetted by 543:
01 [8d23c6d3] (004/181) Accurately ripped
02 [c3f7b052] (004/182) Accurately ripped
03 [865b6568] (004/180) Accurately ripped
04 [5950c135] (004/181) Accurately ripped
05 [e7034164] (004/180) Accurately ripped
06 [4f956554] (004/178) Accurately ripped
07 [a91779e6] (004/179) Accurately ripped
08 [a74354b7] (004/178) Accurately ripped
09 [2d749f54] (004/178) Accurately ripped
10 [60899b61] (004/177) Accurately ripped
11 [f7495026] (004/176) Accurately ripped
12 [2ec9384a] (004/176) Accurately ripped
13 [c6a7145a] (004/173) Accurately ripped
14 [198008ab] (004/178) Accurately ripped
15 [6684d31b] (004/175) Accurately ripped
16 [f567e3f4] (004/177) Accurately ripped
17 [d444ee0d] (004/177) Accurately ripped
18 [af353076] (004/171) Accurately ripped
19 [f2b6ba21] (004/175) Accurately ripped
20 [8f8a0d08] (003/172) Accurately ripped
Offsetted by 570:
01 [54590baa] (013/181) Accurately ripped
02 [93db36f0] (014/182) Accurately ripped
03 [23bf4b83] (015/180) Accurately ripped
04 [8ca9aa6c] (014/181) Accurately ripped
05 [5648cc6a] (013/180) Accurately ripped
06 [5614be5d] (012/178) Accurately ripped
07 [36d0906b] (013/179) Accurately ripped
08 [c05ea996] (013/178) Accurately ripped
09 [92859b48] (014/178) Accurately ripped
10 [36083ed5] (013/177) Accurately ripped
11 [659848f7] (013/176) Accurately ripped
12 [a042d07e] (013/176) Accurately ripped
13 [81e4aab3] (013/173) Accurately ripped
14 [1608cd2e] (013/178) Accurately ripped
15 [97dfce32] (012/175) Accurately ripped
16 [c29c5886] (013/177) Accurately ripped
17 [bffbe439] (012/177) Accurately ripped
18 [a3d65cb7] (012/171) Accurately ripped
19 [42adb9ba] (012/175) Accurately ripped
20 [4d252652] (013/172) Accurately ripped
Offsetted by 635:
01 [20f5badf] (021/181) Accurately ripped
02 [168d2f2a] (020/182) Accurately ripped
03 [d789ddc4] (021/180) Accurately ripped
04 [11c214c1] (021/181) Accurately ripped
05 [4f32965c] (021/180) Accurately ripped
06 [bb0e6ec8] (021/178) Accurately ripped
07 [b1ecf60a] (021/179) Accurately ripped
08 [818d7f63] (021/178) Accurately ripped
09 [4cf0dd64] (021/178) Accurately ripped
10 [8d558f71] (021/177) Accurately ripped
11 [e0ee1b3a] (021/176) Accurately ripped
12 [06c65b5a] (021/176) Accurately ripped
13 [f8ce440e] (020/173) Accurately ripped
14 [0db0df27] (021/178) Accurately ripped
15 [76fd3427] (021/175) Accurately ripped
16 [5b4a08dc] (021/177) Accurately ripped
17 [d184f27d] (021/177) Accurately ripped
18 [16afb44a] (021/171) Accurately ripped
19 [458e92d5] (021/175) Accurately ripped
20 [01b3ebc9] (021/172) Accurately ripped
Offsetted by 664:
01 [394b63a0] (020/181) Accurately ripped
02 [840fc93c] (018/182) Accurately ripped
03 [b979e7e1] (018/180) Accurately ripped
04 [a7b94822] (018/181) Accurately ripped
05 [0914fc46] (018/180) Accurately ripped
06 [175e5327] (018/178) Accurately ripped
07 [c567e84d] (018/179) Accurately ripped
08 [cbed395c] (018/178) Accurately ripped
09 [809acf90] (017/178) Accurately ripped
10 [c7fa061d] (018/177) Accurately ripped
11 [c92ff711] (018/176) Accurately ripped
12 [d5fd1b46] (018/176) Accurately ripped
13 [cb65bf9d] (018/173) Accurately ripped
14 [09f7eb1c] (018/178) Accurately ripped
15 [bef6a0a8] (017/175) Accurately ripped
16 [e25c731a] (018/177) Accurately ripped
17 [536f6331] (018/177) Accurately ripped
18 [98b22631] (017/171) Accurately ripped
19 [33261724] (019/175) Accurately ripped
20 [c86d8ccb] (018/172) Accurately ripped
Offsetted by -1526:
01 [37c005ba] (006/181) Accurately ripped
02 [50a39410] (006/182) Accurately ripped
03 [860be353] (006/180) Accurately ripped
04 [d4aa0e7c] (006/181) Accurately ripped
05 [e428b70a] (006/180) Accurately ripped
06 [085a564d] (006/178) Accurately ripped
07 [a534fe9b] (006/179) Accurately ripped
08 [1060c726] (006/178) Accurately ripped
09 [d055a608] (006/178) Accurately ripped
10 [232f9195] (006/177) Accurately ripped
11 [2b46e867] (006/176) Accurately ripped
12 [e1e8373e] (006/176) Accurately ripped
13 [e9e255a3] (006/173) Accurately ripped
14 [2314527e] (006/178) Accurately ripped
15 [ff3f8442] (006/175) Accurately ripped
16 [ddf6a066] (006/177) Accurately ripped
17 [dd3e4779] (006/177) Accurately ripped
18 [dda13d27] (006/171) Accurately ripped
19 [f98e70aa] (006/175) Accurately ripped
20 [95986f9f] (000/172) No match
Offsetted by -1453:
01 [48de4497] (000/181) No match (V2 was not tested)
02 [49d1da1a] (000/182) No match (V2 was not tested)
03 [4c07059c] (000/180) No match (V2 was not tested)
04 [e43ba179] (000/181) No match (V2 was not tested)
05 [0785ec8c] (000/180) No match (V2 was not tested)
06 [c4963410] (000/178) No match (V2 was not tested)
07 [3758d332] (000/179) No match (V2 was not tested)
08 [96a1315b] (000/178) No match (V2 was not tested)
09 [c524c104] (000/178) No match (V2 was not tested)
10 [0f142f11] (000/177) No match (V2 was not tested)
11 [8e6846c2] (000/176) No match (V2 was not tested)
12 [bf6060fa] (000/176) No match (V2 was not tested)
13 [be3383d6] (000/173) No match (V2 was not tested)
14 [19b5823f] (000/178) No match (V2 was not tested)
15 [38d6afdf] (000/175) No match (V2 was not tested)
16 [5e1c276c] (000/177) No match (V2 was not tested)
17 [47953fdd] (000/177) No match (V2 was not tested)
18 [85ffab52] (000/171) No match (V2 was not tested)
19 [72f15c9d] (000/175) No match (V2 was not tested)
20 [bf1b3f63] (000/172) No match
Offsetted by -646:
01 [a76bbfea] (000/181) No match (V2 was not tested)
02 [3a0d0370] (000/182) No match (V2 was not tested)
03 [56e9c6c3] (000/180) No match (V2 was not tested)
04 [54b986ac] (000/181) No match (V2 was not tested)
05 [21c0eeea] (000/180) No match (V2 was not tested)
06 [86c9d21d] (000/178) No match (V2 was not tested)
07 [8a66ad2b] (000/179) No match (V2 was not tested)
08 [bdee8bd6] (000/178) No match (V2 was not tested)
09 [e73cd648] (000/178) No match (V2 was not tested)
10 [fc3299d5] (000/177) No match (V2 was not tested)
11 [c4bd1ab7] (000/176) No match (V2 was not tested)
12 [ff047b7e] (000/176) No match (V2 was not tested)
13 [0c644a73] (000/173) No match (V2 was not tested)
14 [b21f1e6e] (000/178) No match (V2 was not tested)
15 [df927272] (000/175) No match (V2 was not tested)
16 [5374e006] (000/177) No match (V2 was not tested)
17 [05b8e139] (000/177) No match (V2 was not tested)
18 [dcd0f277] (000/171) No match (V2 was not tested)
19 [e572897a] (000/175) No match (V2 was not tested)
20 [efd67483] (000/172) No match (V2 was not tested)
Offsetted by -218:
01 [787f4586] (000/181) No match
02 [fd074668] (000/182) No match
03 [a40fe06f] (000/180) No match
04 [c50b85c8] (000/181) No match
05 [80dfe982] (000/180) No match
06 [431e4c01] (000/178) No match
07 [5a745dff] (000/179) No match
08 [ed1b0f92] (000/178) No match
09 [9b1aa918] (000/178) No match
10 [89d12aa5] (000/177) No match
11 [b5c6e1bb] (000/176) No match
12 [5b23af4e] (000/176) No match
13 [9189e597] (000/173) No match
14 [7b2ed7ba] (000/178) No match
15 [c805410e] (000/175) No match
16 [b3003dce] (000/177) No match
17 [94c14ee9] (000/177) No match
18 [0c212b3b] (000/171) No match
19 [a9a1799e] (000/175) No match
20 [b5eb8aac] (005/172) Accurately ripped
Offsetted by -145:
01 [899d8463] (000/181) No match
02 [f6358c72] (000/182) No match
03 [6a0b02b8] (000/180) No match
04 [d49d18c5] (000/181) No match
05 [a43d1f04] (000/180) No match
06 [ff5a29c4] (000/178) No match
07 [ec983296] (000/179) No match
08 [735b79c7] (000/178) No match
09 [8fe9c414] (000/178) No match
10 [75b5c821] (000/177) No match
11 [18e84016] (000/176) No match
12 [389bd90a] (000/176) No match
13 [65db13ca] (000/173) No match
14 [71d0077b] (000/178) No match
15 [019c6cab] (000/175) No match
16 [3325c4d4] (000/177) No match
17 [ff18474d] (000/177) No match
18 [b47f9966] (000/171) No match
19 [23046591] (000/175) No match
20 [146b5458] (000/172) No match (V2 was not tested)
Offsetted by -12:
01 [1c8778ac] (000/181) No match (V2 was not tested)
02 [68081a14] (000/182) No match (V2 was not tested)
03 [38725d3d] (000/180) No match (V2 was not tested)
04 [72bb5cae] (000/181) No match (V2 was not tested)
05 [85fbfb3e] (000/180) No match (V2 was not tested)
06 [ca065b9b] (000/178) No match (V2 was not tested)
07 [2b73c771] (000/179) No match (V2 was not tested)
08 [bf9fbd08] (000/178) No match (V2 was not tested)
09 [baa5b9a0] (000/178) No match (V2 was not tested)
10 [3c09262d] (000/177) No match (V2 was not tested)
11 [c6803925] (000/176) No match (V2 was not tested)
12 [123eaa56] (000/176) No match (V2 was not tested)
13 [f6b51e51] (000/173) No match (V2 was not tested)
14 [60bd9698] (000/178) No match (V2 was not tested)
15 [e1c4e2b4] (000/175) No match (V2 was not tested)
16 [7b4e1602] (000/177) No match (V2 was not tested)
17 [03779ba1] (000/177) No match (V2 was not tested)
18 [ee443105] (000/171) No match (V2 was not tested)
19 [1536ded8] (000/175) No match (V2 was not tested)
20 [9024a5b3] (000/172) No match (V2 was not tested)
Offsetted by -5:
01 [b878d65f] (000/181) No match (V2 was not tested)
02 [0fb4de2a] (000/182) No match (V2 was not tested)
03 [285cdb44] (000/180) No match (V2 was not tested)
04 [cbe56041] (000/181) No match (V2 was not tested)
05 [0b20f95c] (000/180) No match (V2 was not tested)
06 [76604348] (000/178) No match (V2 was not tested)
07 [7f9a488a] (000/179) No match (V2 was not tested)
08 [ec0f1ee3] (000/178) No match (V2 was not tested)
09 [0dbd1764] (000/178) No match (V2 was not tested)
10 [1e0d8971] (000/177) No match (V2 was not tested)
11 [715253ba] (000/176) No match (V2 was not tested)
12 [da54b55a] (000/176) No match (V2 was not tested)
13 [c86fc08e] (000/173) No match (V2 was not tested)
14 [5fd790a7] (000/178) No match (V2 was not tested)
15 [30ef6fa7] (000/175) No match (V2 was not tested)
16 [05d6f1dc] (000/177) No match (V2 was not tested)
17 [112bc87d] (000/177) No match (V2 was not tested)
18 [5d18a4ca] (000/171) No match (V2 was not tested)
19 [3ce8af55] (000/175) No match (V2 was not tested)
20 [17333fd1] (000/172) No match (V2 was not tested)
Offsetted by 36:
01 [b790d69c] (000/181) No match (V2 was not tested)
02 [2ef1ecf4] (000/182) No match (V2 was not tested)
03 [a595bd6d] (000/180) No match (V2 was not tested)
04 [b192509e] (000/181) No match (V2 was not tested)
05 [84b0809e] (000/180) No match (V2 was not tested)
06 [d5936bab] (000/178) No match (V2 was not tested)
07 [b5a06141] (000/179) No match (V2 was not tested)
08 [5e093778] (000/178) No match (V2 was not tested)
09 [18fccee0] (000/178) No match (V2 was not tested)
10 [b794f36d] (000/177) No match (V2 was not tested)
11 [354581b5] (000/176) No match (V2 was not tested)
12 [dbfa6396] (000/176) No match (V2 was not tested)
13 [27229b61] (000/173) No match (V2 was not tested)
14 [5a944948] (000/178) No match (V2 was not tested)
15 [009f84a4] (000/175) No match (V2 was not tested)
16 [e81d1e22] (000/177) No match (V2 was not tested)
17 [184b1861] (000/177) No match (V2 was not tested)
18 [2f62b895] (000/171) No match (V2 was not tested)
19 [dc434fe8] (000/175) No match (V2 was not tested)
20 [7218e32a] (000/172) No match (V2 was not tested)
Offsetted by 605:
01 [600fe029] (000/181) No match (V2 was not tested)
02 [da3b0b5e] (000/182) No match (V2 was not tested)
03 [d353c1a6] (000/180) No match (V2 was not tested)
04 [4a7bbc4b] (000/181) No match (V2 was not tested)
05 [f001c300] (000/180) No match (V2 was not tested)
06 [b3d644be] (000/178) No match (V2 was not tested)
07 [db9115e8] (000/179) No match (V2 was not tested)
08 [9e8b92dd] (000/178) No match (V2 was not tested)
09 [31fa701c] (000/178) No match (V2 was not tested)
10 [a01e2f29] (000/177) No match (V2 was not tested)
11 [bbb2cde0] (000/176) No match (V2 was not tested)
12 [88b10792] (000/176) No match (V2 was not tested)
13 [9a89d5e4] (000/173) No match (V2 was not tested)
14 [118aaf79] (000/178) No match (V2 was not tested)
15 [23b48ef1] (000/175) No match (V2 was not tested)
16 [7748a3c8] (000/177) No match (V2 was not tested)
17 [0480c485] (000/177) No match (V2 was not tested)
18 [cdfc9f90] (000/171) No match (V2 was not tested)
19 [0926cc2b] (000/175) No match (V2 was not tested)
20 [bb945019] (000/172) No match (V2 was not tested)

Track Peak [ CRC32 ] [W/O NULL] [ LOG ]
– 99,0 [89E0E20D] [723A9A34] CRC32
01 98,6 [3873D901] [CB212093]
02 89,1 [59C8702F] [2EA4912F]
03 99,0 [0B4FDDB8] [4E0CE553]
04 77,9 [103CB365] [1EEEFE79]
05 87,5 [716C289E] [B9740477]
06 87,4 [2374D72E] [4BC77CAC]
07 99,0 [780E77BE] [F483379E]
08 98,0 [BB18082A] [C362DE5D]
09 82,7 [D75E2A06] [CFDFC547]
10 82,7 [0CDDEF47] [3E0138C7]
11 82,8 [1D8A7FBF] [8F5B1152]
12 87,8 [66C07BC0] [114E69EB]
13 92,7 [C4F7370D] [C3F7769F]
14 99,0 [C664EC59] [99DE5641]
15 98,9 [8FAF6BC9] [C6B71544]
16 97,0 [5F9D5B49] [80D5DDFA]
17 87,7 [DE6A3798] [CDCDD0B9]
18 72,8 [E5B0AD61] [63F371E5]
19 79,3 [9B9B74F1] [5A7BF59C]
20 73,4 [BCF6ECD5] [87872DF5]

Gipsy Kings - The Essential Gipsy Kings (1999) {2015, Blu-Spec CD2, Japanese Reissue}

Track List CD2:

01. Tu Quieres Volver [3:13]
02. Un Amor [3:38]
03. Escucha Me (Single Version) [4:38]
04. Habla Me [4:06]
05. No Volvere [3:51]
06. Caminando Por la Calle [4:18]
07. Mujer [4:16]
08. Este Mundo [4:10]
09. Ternuras (Instrumental) [3:26]
10. Quiero Saber (Live) [4:39]
11. Inspiration [3:42]
12. Camino [5:04]
13. Trista Pena [4:31]
14. Viento del Arena [5:29]
15. Passion (Instrumental) [3:02]
16. Mi Corazon [4:30]
17. I've Got No Strings [3:17]
18. Hotel California (Spanish Mix) [5:47]

Exact Audio Copy V1.1 from 23. June 2015

EAC extraction logfile from 12. May 2018, 21:44

Gipsy Kings / The Essential Gipsy Kings CD2

Used drive : TSSTcorpDVDWBD SH-B123L Adapter: 0 ID: 4

Read mode : Secure
Utilize accurate stream : Yes
Defeat audio cache : Yes
Make use of C2 pointers : No

Read offset correction : 6
Overread into Lead-In and Lead-Out : No
Fill up missing offset samples with silence : Yes
Delete leading and trailing silent blocks : No
Null samples used in CRC calculations : Yes
Used interface : Installed external ASPI interface

Used output format : User Defined Encoder
Selected bitrate : 768 kBit/s
Quality : High
Add ID3 tag : No
Command line compressor : C:\Program Files (x86)\Exact Audio Copy\FLAC\FLAC.EXE
Additional command line options : -6 -V -T "ARTIST=%artist%" -T "TITLE=%title%" -T "ALBUM=%albumtitle%" -T "DATE=%year%" -T "TRACKNUMBER=%tracknr%" -T "GENRE=%genre%" -T "COMMENT=%comment%" -T "BAND=%albuminterpret%" -T "ALBUMARTIST=%albuminterpret%" -T "COMPOSER=%composer%" %haslyrics%–tag-from-file=LYRICS="%lyricsfile%"%haslyrics% -T "DISCNUMBER=%cdnumber%" -T "TOTALDISCS=%totalcds%" -T "TOTALTRACKS=%numtracks%" %hascover%–picture="%coverfile%"%hascover% %source% -o %dest%


TOC of the extracted CD

Track | Start | Length | Start sector | End sector
––––––––––––––––––––––––––––-
1 | 0:00.00 | 3:13.37 | 0 | 14511
2 | 3:13.37 | 3:38.25 | 14512 | 30886
3 | 6:51.62 | 4:37.38 | 30887 | 51699
4 | 11:29.25 | 4:05.62 | 51700 | 70136
5 | 15:35.12 | 3:51.33 | 70137 | 87494
6 | 19:26.45 | 4:18.37 | 87495 | 106881
7 | 23:45.07 | 4:15.50 | 106882 | 126056
8 | 28:00.57 | 4:09.40 | 126057 | 144771
9 | 32:10.22 | 3:26.13 | 144772 | 160234
10 | 35:36.35 | 4:39.00 | 160235 | 181159
11 | 40:15.35 | 3:42.37 | 181160 | 197846
12 | 43:57.72 | 5:04.15 | 197847 | 220661
13 | 49:02.12 | 4:31.03 | 220662 | 240989
14 | 53:33.15 | 5:28.65 | 240990 | 265654
15 | 59:02.05 | 3:02.15 | 265655 | 279319
16 | 62:04.20 | 4:30.25 | 279320 | 299594
17 | 66:34.45 | 3:16.42 | 299595 | 314336
18 | 69:51.12 | 5:46.45 | 314337 | 340331


Range status and errors

Selected range

Filename E:\MUSIC\Gipsy Kings - The Essential Gipsy Kings CD2.wav

Peak level 98.0 %
Extraction speed 4.0 X
Range quality 99.9 %
Test CRC 8DDECE31
Copy CRC 8DDECE31
Copy OK

No errors occurred


AccurateRip summary

Track 1 accurately ripped (confidence 11) [D01B99B1] (AR v2)
Track 2 accurately ripped (confidence 11) [DF3188FA] (AR v2)
Track 3 accurately ripped (confidence 12) [9BAFCC33] (AR v2)
Track 4 accurately ripped (confidence 12) [6B16C1D7] (AR v2)
Track 5 accurately ripped (confidence 11) [D4E2FF6C] (AR v2)
Track 6 accurately ripped (confidence 12) [CDDCFEEB] (AR v2)
Track 7 accurately ripped (confidence 11) [35C1DBCC] (AR v2)
Track 8 accurately ripped (confidence 11) [01ED5DE3] (AR v2)
Track 9 accurately ripped (confidence 11) [479D66DF] (AR v2)
Track 10 accurately ripped (confidence 11) [3E22E99D] (AR v2)
Track 11 accurately ripped (confidence 11) [7C90F56A] (AR v2)
Track 12 accurately ripped (confidence 12) [DA88E612] (AR v2)
Track 13 accurately ripped (confidence 11) [846FB04A] (AR v2)
Track 14 accurately ripped (confidence 11) [B2CB8D79] (AR v2)
Track 15 accurately ripped (confidence 12) [9EEBA28F] (AR v2)
Track 16 accurately ripped (confidence 12) [7E5389A2] (AR v2)
Track 17 accurately ripped (confidence 11) [194E5C52] (AR v2)
Track 18 accurately ripped (confidence 12) [91A2C1F7] (AR v2)

All tracks accurately ripped

End of status report

==== Log checksum EDF386A73FE1DD3078AD8D3BE31FF1251B3F47AF572A03227DFA34B6CB77D992 ====

foobar2000 1.3.16 / Dynamic Range Meter 1.1.1
log date: 2018-05-21 15:54:41

––––––––––––––––––––––––––––––––––––––––
Analyzed: Gipsy Kings / The Essential Gipsy Kings CD2
––––––––––––––––––––––––––––––––––––––––

DR Peak RMS Duration Track
––––––––––––––––––––––––––––––––––––––––
DR10 -0.17 dB -11.47 dB 3:13 01-Tu Quieres Volver
DR10 -0.23 dB -12.03 dB 3:38 02-Un Amor
DR11 -2.40 dB -14.13 dB 4:38 03-Escucha Me (Single Version)
DR10 -0.17 dB -12.18 dB 4:06 04-Habla Me
DR11 -0.17 dB -14.16 dB 3:51 05-No Volvere
DR11 -1.08 dB -14.07 dB 4:18 06-Caminando Por la Calle
DR9 -1.23 dB -12.09 dB 4:16 07-Mujer
DR11 -0.17 dB -14.68 dB 4:10 08-Este Mundo
DR14 -0.17 dB -15.90 dB 3:26 09-Ternuras (Instrumental)
DR11 -0.17 dB -12.44 dB 4:39 10-Quiero Saber (Live)
DR10 -2.17 dB -12.78 dB 3:42 11-Inspiration
DR11 -0.17 dB -12.33 dB 5:04 12-Camino
DR10 -1.14 dB -12.68 dB 4:31 13-Trista Pena
DR11 -0.17 dB -13.13 dB 5:29 14-Viento del Arena
DR12 -1.17 dB -14.17 dB 3:02 15-Passion (Instrumental)
DR10 -0.68 dB -11.87 dB 4:30 16-Mi Corazon
DR10 -0.17 dB -12.23 dB 3:17 17-I've Got No Strings
DR8 -2.18 dB -11.65 dB 5:47 18-Hotel California (Spanish Mix)
––––––––––––––––––––––––––––––––––––––––

Number of tracks: 18
Official DR value: DR11

Samplerate: 44100 Hz
Channels: 2
Bits per sample: 16
Bitrate: 899 kbps
Codec: FLAC
================================================================================

[CUETools log; Date: 21.05.2018 15:54:52; Version: 2.1.6]
[CTDB TOCID: 33b6XEoarUlT84PKwAd.6otgdow-] found.
Track | CTDB Status
1 | (239/243) Accurately ripped
2 | (241/243) Accurately ripped
3 | (242/243) Accurately ripped
4 | (242/243) Accurately ripped
5 | (242/243) Accurately ripped
6 | (243/243) Accurately ripped
7 | (239/243) Accurately ripped
8 | (240/243) Accurately ripped
9 | (241/243) Accurately ripped
10 | (242/243) Accurately ripped
11 | (242/243) Accurately ripped
12 | (241/243) Accurately ripped
13 | (241/243) Accurately ripped
14 | (240/243) Accurately ripped
15 | (241/243) Accurately ripped
16 | (237/243) Accurately ripped
17 | (238/243) Accurately ripped
18 | (232/243) Accurately ripped
[AccurateRip ID: 002fcc9f-02831c4d-1711b912] found.
Track [ CRC | V2 ] Status
01 [7c366293|d01b99b1] (000+011/157) Accurately ripped
02 [d326b308|df3188fa] (000+011/157) Accurately ripped
03 [6dc7dd82|9bafcc33] (000+012/158) Accurately ripped
04 [878e85dc|6b16c1d7] (000+012/158) Accurately ripped
05 [394ab28e|d4e2ff6c] (000+011/157) Accurately ripped
06 [b558bfa0|cddcfeeb] (000+012/159) Accurately ripped
07 [598bad8f|35c1dbcc] (000+011/158) Accurately ripped
08 [bc41f50d|01ed5de3] (000+011/158) Accurately ripped
09 [6229822d|479d66df] (000+011/156) Accurately ripped
10 [fe16d6cb|3e22e99d] (000+011/155) Accurately ripped
11 [5538c7a8|7c90f56a] (000+011/157) Accurately ripped
12 [776e7489|da88e612] (000+012/157) Accurately ripped
13 [69093882|846fb04a] (000+011/156) Accurately ripped
14 [5025b255|b2cb8d79] (000+011/157) Accurately ripped
15 [01b8b649|9eeba28f] (000+012/157) Accurately ripped
16 [662f59ec|7e5389a2] (000+012/157) Accurately ripped
17 [182e4da6|194e5c52] (000+011/152) Accurately ripped
18 [2721e0ae|91a2c1f7] (000+012/149) Accurately ripped
Offsetted by -907:
01 [6f18edae] (009/157) Accurately ripped
02 [0df9733a] (009/157) Accurately ripped
03 [e3f2287d] (009/158) Accurately ripped
04 [ee45790b] (009/158) Accurately ripped
05 [8e979c92] (009/157) Accurately ripped
06 [36e31b45] (009/159) Accurately ripped
07 [4853b896] (009/158) Accurately ripped
08 [e1c12275] (009/158) Accurately ripped
09 [99157c90] (009/156) Accurately ripped
10 [9bfc87e9] (009/155) Accurately ripped
11 [05a82b15] (009/157) Accurately ripped
12 [d5e49662] (009/157) Accurately ripped
13 [58354a21] (009/156) Accurately ripped
14 [bd59dd06] (009/157) Accurately ripped
15 [98474e9c] (009/157) Accurately ripped
16 [4089e8e6] (009/157) Accurately ripped
17 [4ce20f7d] (009/152) Accurately ripped
18 [a98a25c2] (009/149) Accurately ripped
Offsetted by 276:
01 [65ac03bf] (008/157) Accurately ripped
02 [1cfb7450] (008/157) Accurately ripped
03 [7aef362e] (008/158) Accurately ripped
04 [cf0a1458] (008/158) Accurately ripped
05 [45b8839e] (008/157) Accurately ripped
06 [8c3be974] (010/159) Accurately ripped
07 [f06d016b] (009/158) Accurately ripped
08 [25fb14ad] (009/158) Accurately ripped
09 [ed888279] (008/156) Accurately ripped
10 [0cb34ec3] (008/155) Accurately ripped
11 [bcbed29c] (008/157) Accurately ripped
12 [f755cc2d] (008/157) Accurately ripped
13 [8c133cbe] (007/156) Accurately ripped
14 [1facd359] (008/157) Accurately ripped
15 [e4470a55] (007/157) Accurately ripped
16 [1fc9d854] (007/157) Accurately ripped
17 [47a650c2] (008/152) Accurately ripped
18 [c2989eb9] (007/149) Accurately ripped
Offsetted by 635:
01 [28d11388] (015/157) Accurately ripped
02 [56fcb636] (015/157) Accurately ripped
03 [43b22897] (015/158) Accurately ripped
04 [ecf2367d] (015/158) Accurately ripped
05 [0baf3d4a] (015/157) Accurately ripped
06 [f8262beb] (015/159) Accurately ripped
07 [7d06f6d8] (015/158) Accurately ripped
08 [14995325] (015/158) Accurately ripped
09 [87eb095a] (015/156) Accurately ripped
10 [cc3a314d] (015/155) Accurately ripped
11 [bce889ab] (015/157) Accurately ripped
12 [4d01c860] (015/157) Accurately ripped
13 [9667afb3] (015/156) Accurately ripped
14 [8d25ddd4] (015/157) Accurately ripped
15 [a5dcec86] (015/157) Accurately ripped
16 [3ccd3bd2] (015/157) Accurately ripped
17 [e138371f] (015/152) Accurately ripped
18 [d957b0bd] (015/149) Accurately ripped
Offsetted by 664:
01 [49b1d77b] (019/157) Accurately ripped
02 [548ab7f8] (019/157) Accurately ripped
03 [4aa4ab6a] (019/158) Accurately ripped
04 [3af32324] (019/158) Accurately ripped
05 [0591f76e] (019/157) Accurately ripped
06 [5d9184b8] (018/159) Accurately ripped
07 [0750ba17] (019/158) Accurately ripped
08 [e36aebcd] (019/158) Accurately ripped
09 [da45b6d5] (018/156) Accurately ripped
10 [856a2b5b] (018/155) Accurately ripped
11 [1a562880] (019/157) Accurately ripped
12 [25939901] (019/157) Accurately ripped
13 [a35cae4a] (019/156) Accurately ripped
14 [3fb4fe0d] (019/157) Accurately ripped
15 [f9f52771] (019/157) Accurately ripped
16 [8176829c] (019/157) Accurately ripped
17 [68fd67ae] (017/152) Accurately ripped
18 [2f883b39] (015/149) Accurately ripped
Offsetted by -1084:
01 [831e300f] (002/157) Accurately ripped
02 [d6474530] (002/157) Accurately ripped
03 [f756247e] (002/158) Accurately ripped
04 [cb8f4768] (002/158) Accurately ripped
05 [0c2fcb5e] (002/157) Accurately ripped
06 [61f2d124] (002/159) Accurately ripped
07 [4bbda6fb] (002/158) Accurately ripped
08 [9b2bce2d] (002/158) Accurately ripped
09 [bcec0a49] (002/156) Accurately ripped
10 [28e088e3] (002/155) Accurately ripped
11 [355a8dcc] (002/157) Accurately ripped
12 [fb85189d] (002/157) Accurately ripped
13 [1ac7e8ce] (002/156) Accurately ripped
14 [72b28249] (002/157) Accurately ripped
15 [09c51325] (002/157) Accurately ripped
16 [94a40cb4] (002/157) Accurately ripped
17 [3c5aa952] (002/152) Accurately ripped
18 [c8ea0c07] (000/149) No match (V2 was not tested)
Offsetted by -646:
01 [96ffd139] (000/157) No match (V2 was not tested)
02 [f7f7830c] (000/157) No match (V2 was not tested)
03 [2278c1e8] (000/158) No match (V2 was not tested)
04 [ac4dcaea] (000/158) No match (V2 was not tested)
05 [579027d6] (000/157) No match (V2 was not tested)
06 [c7a93a7a] (000/159) No match (V2 was not tested)
07 [24eb95cd] (000/158) No match (V2 was not tested)
08 [271f805d] (000/158) No match (V2 was not tested)
09 [7e4595e3] (000/156) No match (V2 was not tested)
10 [1eac5267] (000/155) No match (V2 was not tested)
11 [4e82c092] (000/157) No match (V2 was not tested)
12 [7304ec0b] (000/157) No match (V2 was not tested)
13 [ccd23d70] (000/156) No match (V2 was not tested)
14 [0461ff07] (000/157) No match (V2 was not tested)
15 [8d2160df] (000/157) No match (V2 was not tested)
16 [aa7d6600] (000/157) No match (V2 was not tested)
17 [12d0c484] (000/152) No match (V2 was not tested)
18 [fac83d1c] (000/149) No match (V2 was not tested)
Offsetted by -393:
01 [ad00fa4c] (000/157) No match (V2 was not tested)
02 [d0fa898e] (000/157) No match (V2 was not tested)
03 [ae877ddb] (000/158) No match (V2 was not tested)
04 [4329b831] (000/158) No match (V2 was not tested)
05 [b84a277a] (000/157) No match (V2 was not tested)
06 [21f97627] (000/159) No match (V2 was not tested)
07 [af3a22ac] (000/158) No match (V2 was not tested)
08 [9d5e8805] (000/158) No match (V2 was not tested)
09 [935cab7e] (000/156) No match (V2 was not tested)
10 [ac1115b5] (000/155) No match (V2 was not tested)
11 [9812f547] (000/157) No match (V2 was not tested)
12 [a843a70c] (000/157) No match (V2 was not tested)
13 [c24616a7] (000/156) No match (V2 was not tested)
14 [57f332a0] (000/157) No match (V2 was not tested)
15 [47792dea] (000/157) No match (V2 was not tested)
16 [3f4b048a] (000/157) No match (V2 was not tested)
17 [7e541cb3] (000/152) No match (V2 was not tested)
18 [0ecf34d1] (000/149) No match (V2 was not tested)
Offsetted by -12:
01 [e15dcadf] (000/157) No match (V2 was not tested)
02 [b9ae2510] (000/157) No match (V2 was not tested)
03 [6214114e] (000/158) No match (V2 was not tested)
04 [4ccbeef8] (000/158) No match (V2 was not tested)
05 [9cece11e] (000/157) No match (V2 was not tested)
06 [e3a7ea54] (000/159) No match (V2 was not tested)
07 [5e1db50b] (000/158) No match (V2 was not tested)
08 [0592f3ad] (000/158) No match (V2 was not tested)
09 [aa03fc99] (000/156) No match (V2 was not tested)
10 [8e264c03] (000/155) No match (V2 was not tested)
11 [d649367c] (000/157) No match (V2 was not tested)
12 [5b9c0c8d] (000/157) No match (V2 was not tested)
13 [aa4b915e] (000/156) No match (V2 was not tested)
14 [e2f34cb9] (000/157) No match (V2 was not tested)
15 [a9f54e75] (000/157) No match (V2 was not tested)
16 [26768c14] (000/157) No match (V2 was not tested)
17 [908d4262] (000/152) No match (V2 was not tested)
18 [05eb18b3] (000/149) No match (V2 was not tested)

Track Peak [ CRC32 ] [W/O NULL] [ LOG ]
– 98,0 [8DDECE31] [91684B04] CRC32
01 98,0 [C99F7FAA] [A714CFD1]
02 97,3 [69A9388A] [DC113194]
03 75,8 [D6D8FB83] [F12E79E1]
04 98,0 [55E775B9] [132292C6]
05 98,0 [151C1F13] [AD2C7A37]
06 88,3 [861CCE9C] [6F097000]
07 86,8 [AC4D2753] [C7BE1ACA]
08 98,0 [40FE16E6] [9F673783]
09 98,0 [4E1040D9] [38F35E90]
10 98,0 [92DCF660] [09AEF271]
11 77,9 [A8B33831] [EE9B6D15]
12 98,0 [A2BD9699] [519C7CB7]
13 87,6 [467480FD] [08EABD0E]
14 98,0 [BAA07780] [207C370E]
15 87,3 [80EB7605] [B1113659]
16 92,4 [B0389C9A] [78F2B99C]
17 98,0 [14D450B5] [F10DD304]
18 77,8 [BDAE6CBA] [D3E26A5B]

Gipsy Kings - The Essential Gipsy Kings (1999) {2015, Blu-Spec CD2, Japanese Reissue}

See also:
Gipsy Kings - Greatest Hits (1994)

All thanks go to RD

>>> My Blog <<<

Download from icerbox.com: